Пьяная история / Drunk History [05x01-09 из 14] (2018) WEBRip | Jaskier | Lynn Marocola | Watch What Happens Live 2018 06 25 Bebe Rexha and Bryan Adams WEB x264-TBS [eztv]

Скачать через торрент [VIDEO] Конго Congo бесплатно русская версия torrent активатор

Статистика раздачи
Размер:  735 MB   |    Зарегистрирован:  5 лет 11 месяцев   |    .torrent скачан:  36 раз   |   
Раздают:  1  
   
загрузка...
 
Автор Сообщение

Galfimbul

avatar Galfimbul


Конго / Congo

Год выпуска: 1995

Страна: США
Жанр: приключения, фантастика
Продолжительность: 01:43:46
Перевод: Профессиональный (многоголосый, закадровый)
Русские субтитры: нет
Режиссер: Фрэнк Маршалл / Frank Marshall
В ролях: Лора Линни, Дилан Уолш, Эрни Хадсон, Тим Карри, Грант Хеслов, Джо Дон Бейкер, Лорен Но, Мэри Эллен Трейнор, Мисти Росас, Стюарт Пэнкин

Описание: Их обстреливают тепловыми ракетами, на них нападает бешеный трехтонный бегемот, им приходится продираться сквозь непроходимые джунгли. Но несмотря ни на что, экспедиция продолжается.Обаятельная горилла по кличке Эми, бывшая частью научного эксперимента, возвращается на родину, в джунгли. За ней следуют романтичный молодой профессор, самоуверенная женщина-эксперт по электронике, грубоватый проводник, эксцентричный исследователь и многие другие.Они не знают, что она приведет их не просто в свой родной дом, а в загадочный край, где должен находиться Потерянный Город Зинж, богатый своими алмазными месторождениями. Но... все неизвестное таит в себе смертельную опасность.
Качество: HDTVRip
Формат: MP4
Видео кодек: XviD
Аудио кодек: AAC
Видео: XviD (1.2.2) 860kbps 640x360 25.000fps
Аудио: AAC 128kbps 2ch 16bit 48000khz
  
C:\Users\Слониха\Downloads\Мои раздачи\Congo.1995.HDTVRip-AVC.576p.mp4 General Complete name : C:\Users\Слониха\Downloads\Мои раздачи\Congo.1995.HDTVRip-AVC.576p.mp4 Format : MPEG-4 Format profile : Base Media / Version 2 Codec ID : mp42 File size : 735 MiB Duration : 1h 43mn Overall bit rate mode : Variable Overall bit rate : 990 Kbps Encoded date : UTC 2012-07-28 13:48:58 Tagged date : UTC 2012-07-28 13:48:58 Video #201 ID : 201 Format : MPEG-4 Visual Format profile : Advanced [email protected] Format settings, BVOP : No Format settings, QPel : No Format settings, GMC : No warppoints Format settings, Matrix : Default (H.263) Codec ID : 20 Duration : 1h 43mn Bit rate mode : Variable Bit rate : 860 Kbps Maximum bit rate : 4 582 Kbps Width : 640 pixels Height : 360 pixels Display aspect ratio : 16:9 Frame rate mode : Variable Frame rate : 25.000 fps Minimum frame rate : 1.389 fps Maximum frame rate : 25.000 fps Color space : YUV Chroma subsampling : 4:2:0 Bit depth : 8 bits Scan type : Progressive Compression mode : Lossy Bits/(Pixel*Frame) : 0.149 Stream size : 638 MiB (87%) Writing library : XviD 1.2.1 (UTC 2008-12-04) Encoded date : UTC 2012-07-28 13:48:58 Tagged date : UTC 2012-07-28 13:49:33 Audio #101 ID : 101 Format : AAC Format/Info : Advanced Audio Codec Format profile : LC Codec ID : 40 Duration : 1h 43mn Bit rate mode : Variable Bit rate : 128 Kbps Maximum bit rate : 200 Kbps Channel(s) : 2 channels Channel positions : Front: L R Sampling rate : 48.0 KHz Compression mode : Lossy Stream size : 94.8 MiB (13%) Encoded date : UTC 2012-07-28 13:49:29 Tagged date : UTC 2012-07-28 13:49:33


Трекер:  [ 30-Июл-2012 18:20 ]

  

Скачать .torrent

Размер .torrent файла 15 KB


Размер: 735 MB
Хэш (hash) релиза: 0ad14cbd7ee18f5511a7d7a679f2775e9f478907

Еще никто не оставлял запись к записи скачать торрент [VIDEO] Конго Congo . Будь первым!

!Обратная связь