Bridget Gabbe | Jane 2017 | Streamango

Скачать через торрент [VIDEO] Девчата бесплатно русская версия torrent активатор

Статистика раздачи
Размер:  350 MB   |    Зарегистрирован:  5 лет 11 месяцев   |    .torrent скачан:  132 раза   |   
Раздают:  1  
   
загрузка...
 
Автор Сообщение

Galfimbul

avatar Galfimbul


Девчата
«-//-»

Год выпуска: 1961
Выпущено: СССР / Мосфильм
Жанр: мелодрама, комедия
Продолжительность: 01:36:03
Перевод: Оригинал
Режиссер: Юрий Чулюкин
В ролях: Надежда Румянцева, Николай Рыбников, Люсьена Овчинникова, Станислав Хитров, Инна Макарова, Светлана Дружинина, Нина Меньшикова, Николай Погодин, Михаил Пуговкин, Анатолий Адоскин, Виктор Байков, Роман Филиппов, Алексей Крыченков, Петр Кирюткин, Михаил Кокшенов
Сюжет: В сибирский поселок приехала юная повариха Тося Кислицына — наивная и эксцентричная девчонка. Она сует свой нос во все дела, каждому стремится помочь. Местный красавец Илья на спор заводит с Тосей роман, сопровождающийся массой комичных ситуаций…
КиноПоиск
Качество видео: HDRip
Формат: MP4
Видео кодек: AVC
Аудио кодек: AAC-LC
Видео: AVC, 480 x 204, 23.976 fps, ~440 Кбит/с
Аудио: AAC-LC, ~68 Кбит/с, 48 kHz (1 ch) Russian
Cубтитры: -//-
<!--/code_head--> <div class="c-body">avs [info]: 480x204p 1:1 @ 24000/1001 fps (cfr)
x264 [info]: using SAR=1/1
x264 [info]: using cpu capabilities: MMX2 SSE2Fast SSSE3 FastShuffle SSE4.1 Cache64
x264 [info]: profile Constrained Baseline, level 3.0
x264 [info]: cabac=0 ref=6 deblock=1:0:0 analyse=0x1:0x131 me=umh subme=9 psy=1 fade_compensate=0.00 psy_rd=1.00:0.00 mixed_ref=1 me_range=32 chroma_me=1 trellis=2 8x8dct=0 cqm=0 deadzone=21,11 fast_pskip=0 chroma_qp_offset=-2 threads=6 lookahead_threads=1 sliced_threads=0 nr=0 decimate=0 interlaced=0 bluray_compat=0 constrained_intra=0 bframes=0 weightp=0 keyint=240 keyint_min=23 scenecut=40 intra_refresh=0 rc=2pass mbtree=0 bitrate=440 ratetol=1.0 qcomp=0.60 qpmin=0 qpmax=69 qpstep=4 cplxblur=20.0 qblur=0.5 ip_ratio=1.30 aq=1:1.00
x264 [info]: started at Fri Jul 27 16:59:38 2012

x264 [info]: frame I:990   Avg QP:21.37  size: 15869
x264 [info]: frame P:137181 Avg QP:24.32  size:  2196
x264 [info]: mb I  I16..4: 14.2%  0.0% 85.8%
x264 [info]: mb P  I16..4:  0.1%  0.0%  0.8%  P16..4: 49.2% 13.8%  8.2%  2.0%  0.8%    skip:25.0%
x264 [info]: coded y,uvDC,uvAC intra: 88.9% 0.0% 0.0% inter: 34.5% 0.0% 0.0%
x264 [info]: i16 v,h,dc,p: 38% 18% 15% 28%
x264 [info]: i4 v,h,dc,ddl,ddr,vr,hd,vl,hu: 15%  9%  5% 10% 14% 14% 12% 11% 10%
x264 [info]: i8c dc,h,v,p: 100%  0%  0%  0%
x264 [info]: ref P L0: 83.3%  8.0%  4.8%  1.7%  1.2%  0.9%
x264 [info]: kb/s:440.00

x264 [total]: encoded 138171 frames, 57.56 fps, 440.00 kb/s
x264 [info]: ended at Fri Jul 27 17:39:39 2012
x264 [info]: encoding duration 0:40:01 <!--/code--><!--/code_wrap-->
<!--/code_head--> <div class="c-body">General
Complete name                            : D:\VIDEO\Devchata.1961.480x.mp4
Format                                   : MPEG-4
Format profile                           : Base Media
Codec ID                                 : isom
File size                                : 350 MiB
Duration                                 : 1h 36mn
Overall bit rate mode                    : Variable
Overall bit rate                         : 509 Kbps
Encoded date                             : UTC 2012-07-26 14:52:33
Tagged date                              : UTC 2012-07-26 14:52:33
Writing application                      : My MP4Box GUI 0.5.6.0 <http://my-mp4box-gui.zymichost.com>

Video
ID                                       : 1
Format                                   : AVC
Format/Info                              : Advanced Video Codec
Format profile                           : <a href="mailto:[email protected]" class="postLink">[email protected]</a>
Format settings, CABAC                   : No
Format settings, ReFrames                : 6 frames
Codec ID                                 : avc1
Codec ID/Info                            : Advanced Video Coding
Duration                                 : 1h 36mn
Bit rate                                 : 440 Kbps
Maximum bit rate                         : 1 087 Kbps
Width                                    : 480 pixels
Height                                   : 204 pixels
Display aspect ratio                     : 2.35:1
Frame rate mode                          : Constant
Frame rate                               : 23.976 fps
Color space                              : YUV
Chroma subsampling                       : 4:2:0
Bit depth                                : 8 bits
Scan type                                : Progressive
Bits/(Pixel*Frame)                       : 0.187
Stream size                              : 302 MiB (86%)
Title                                    : Devchata 1961
Writing library                          : x264 core 125 r2200kMod 999b753
Encoding settings                        : cabac=0 / ref=6 / deblock=1:0:0 / analyse=0x1:0x131 / me=umh / subme=9 / psy=1 / fade_compensate=0.00 / psy_rd=1.00:0.00 / mixed_ref=1 / me_range=32 / chroma_me=1 / trellis=2 / 8x8dct=0 / cqm=0 / deadzone=21,11 / fast_pskip=0 / chroma_qp_offset=-2 / threads=6 / lookahead_threads=1 / sliced_threads=0 / nr=0 / decimate=0 / interlaced=0 / bluray_compat=0 / constrained_intra=0 / bframes=0 / weightp=0 / keyint=240 / keyint_min=23 / scenecut=40 / intra_refresh=0 / rc=2pass / mbtree=0 / bitrate=440 / ratetol=1.0 / qcomp=0.60 / qpmin=0 / qpmax=69 / qpstep=4 / cplxblur=20.0 / qblur=0.5 / ip_ratio=1.30 / aq=1:1.00
Language                                 : Russian
Encoded date                             : UTC 2012-07-27 13:39:39
Tagged date                              : UTC 2012-07-26 14:52:38

Audio
ID                                       : 2
Format                                   : AAC
Format/Info                              : Advanced Audio Codec
Format profile                           : LC
Codec ID                                 : 40
Duration                                 : 1h 36mn
Bit rate mode                            : Variable
Bit rate                                 : 66.2 Kbps
Maximum bit rate                         : 76.4 Kbps
Channel(s)                               : 1 channel
Channel positions                        : Front: C
Sampling rate                            : 48.0 KHz
Compression mode                         : Lossy
Stream size                              : 45.8 MiB (13%)
Title                                    : Original
Language                                 : Russian
Encoded date                             : UTC 2012-07-26 14:52:36
Tagged date                              : UTC 2012-07-26 14:52:38 <!--/code--><!--/code_wrap-->


Трекер:  [ 30-Июл-2012 18:20 ]

  

Скачать .torrent

Размер .torrent файла 14 KB


Размер: 350 MB
Хэш (hash) релиза: dda6702d7143eecb7d96af89c95b4071b44d04b3

Еще никто не оставлял запись к записи скачать торрент [VIDEO] Девчата . Будь первым!

!Обратная связь