Eps21 Tangled: The Series (2017) | En Famille | Divergent

Скачать через торрент [VIDEO] Heat Схватка бесплатно русская версия torrent активатор

Статистика раздачи
Размер:  1.07 GB   |    Зарегистрирован:  5 лет 11 месяцев   |    .torrent скачан:  48 раз   |   
Раздают:  1  
   
загрузка...
 
Автор Сообщение

Galfimbul

avatar Galfimbul


Heat / Схватка

Год выпуска: 1995

Страна: США
Жанр: Боевик, детектив, драма, криминал
Продолжительность: 02:50:27
Перевод: Авторский (одноголосый) - Дмитрий Пучков aka Гоблин
Русские субтитры: нет

Режиссер: Майкл Манн / Michael Mann

В ролях: Аль Пачино, Роберт Де Ниро, Вэл Килмер, Том Сайзмор, Эми Бреннеман, Джон Войт, Дайан Венора, Эшли Джадд, Майкелти Уильямсон, Уэс Стьюди

Описание: Нил МакКоли - преступник. Один из лучших, если можно так сказать о преступнике, в Лос-Анджелесе, а быть может, и во всей Америке. И работать с ним вместе почитают за честь суперпрофессионалы криминального мира. Но против него выступает Винсент Ханна. Детектив. Один из лучших в Лос-Анджелесе, а быть может, и во всей Америке. У Винсента и Нила очень много общего. Вероятно, общего у них даже больше, чем отличий. Однако они все же стоят по разные стороны закона. Две сильнейшие команды сошлись друг против друга. Только речь идет не о спортивном состязании, а о схватке не на жизнь, а на смерть...

Качество: BDRip
Формат: MP4
Видео кодек: XviD
Аудио кодек: AAC
Видео: XviD, 640x264, 2.40:1, 768 Kbps, 23.976 fps
Аудио: AAC, 128 Kbps, 48.0 KHz, 2 ch.
  
GeneralComplete name : D:\!ФИЛЬМЫ\Видео для смартфона\Heat (1995).mp4Format : MPEG-4Format profile : Base Media / Version 2Codec ID : mp42File size : 1.07 GiBDuration : 2h 50mnOverall bit rate mode : VariableOverall bit rate : 898 KbpsEncoded date : UTC 2012-07-08 02:56:02Tagged date : UTC 2012-07-08 02:56:02

VideoID : 201Format : MPEG-4 VisualFormat profile : Advanced [email protected] settings, BVOP : NoFormat settings, QPel : NoFormat settings, GMC : No warppointsFormat settings, Matrix : Default (H.263)Codec ID : 20Duration : 2h 50mnBit rate mode : VariableBit rate : 768 KbpsMaximum bit rate : 4 132 KbpsWidth : 640 pixelsHeight : 264 pixelsDisplay aspect ratio : 2.40:1Frame rate mode : VariableFrame rate : 23.930 fpsOriginal frame rate : 23.976 fpsMinimum frame rate : 0.139 fpsMaximum frame rate : 23.976 fpsColor space : YUVChroma subsampling : 4:2:0Bit depth : 8 bitsScan type : ProgressiveCompression mode : LossyBits/(Pixel*Frame) : 0.190Stream size : 936 MiB (85%)Writing library : XviD 1.2.1 (UTC 2008-12-04)Encoded date : UTC 2012-07-08 02:56:02Tagged date : UTC 2012-07-08 02:56:43

AudioID : 101Format : AACFormat/Info : Advanced Audio CodecFormat profile : LCCodec ID : 40Duration : 2h 50mnBit rate mode : VariableBit rate : 128 KbpsMaximum bit rate : 208 KbpsChannel(s) : 2 channelsChannel positions : Front: L RSampling rate : 48.0 KHzCompression mode : LossyStream size : 156 MiB (14%)Encoded date : UTC 2012-07-08 02:56:35Tagged date : UTC 2012-07-08 02:56:43



Трекер:  [ 30-Июл-2012 18:20 ]

  

Скачать .torrent

Размер .torrent файла 11 KB


Размер: 1.07 GB
Хэш (hash) релиза: 3a8945d078bdad2e8feadbf0b0aeb90cc65bed78

Еще никто не оставлял запись к записи скачать торрент [VIDEO] Heat Схватка . Будь первым!

!Обратная связь