[FHD 1080P]HNB 090
SuperGirl

Скачать через торрент [SERIAL] Твин Пикс бесплатно русская версия torrent активатор

Статистика раздачи
Размер:  1.41 GB   |    Зарегистрирован:  5 лет 8 месяцев   |    .torrent скачан:  144 раза   |   
Раздают:  1  
   
загрузка...
 
Автор Сообщение

Galfimbul

avatar Galfimbul


Твин Пикс (1 сезон)

Год выпуска: 1990

Страна: США
Жанр: Мистика , триллер , драмма
Продолжительность: 6ч45мин
Перевод: Профессиональный (одноголосый)
Русские субтитры: нет
Режиссер: Дэвид Линч / David Lynch
В ролях: Кайл Маклахлен, Майкл Онткин, Мэдхен Эмик, Дана Эшбрук, Ричард Беймер, Лара Флинн Бойл, Шерилин Фенн, Уоррен Фрост

В городке Твин Пикс, расположенном в северо-восточной части штата Вашингтон, неподалеку от границы с Канадой, происходит загадочное и жестокое убийство старшеклассницы Лоры Палмер (Шерил Ли) — ее обнаженное тело, завернутое в полиэтилен, находят на берегу озера. Расследовать преступление в Твин Пикс приезжает специальный агент ФБР Дейл Купер (Кайл МакЛахлан). Разобраться в произошедшем ему помогают местный шериф Гарри С. Трумэн (Майкл Онткин) и его помощники — впечатлительный невротик Энди Бреннен (Гарри Гоаз) и невозмутимый мудрый индеец Томми Хилл (Майкл Хорс), более известный как "Хоук" («ястреб»).

Качество: DVDRip
Формат: MP4
Видео кодек: XviD
Аудио кодек: AAC
Видео: XviD (1.2.2) 360kbps 320x216 25.000fps
Аудио: AAC 128kbps 2ch 16bit 48000khz
00. Пилотная серия (Northwest Passage)
01. Следы в никуда (Traces to Nowhere)
02. Дзен, или Умение поймать убийцу (Zen, or the Skill to Catch a Killer)
03. Покойся с болью (Rest in Pain)
04. Однорукий (The One-Armed Man)
05. Сны Купера (Cooper's Dreams)
06. Время осмысления (Realization Time)
07. Последний вечер (The Last Evening_
  
Format : MPEG-4Format profile : Base Media / Version 2Codec ID : mp42File size : 161 MiBDuration : 45mn 59sOverall bit rate mode : VariableOverall bit rate : 490 KbpsEncoded date : UTC 2012-07-28 06:39:23Tagged date : UTC 2012-07-28 06:39:23

VideoID : 201Format : MPEG-4 VisualFormat profile : Advanced [email protected] settings, BVOP : NoFormat settings, QPel : NoFormat settings, GMC : No warppointsFormat settings, Matrix : Default (H.263)Codec ID : 20Duration : 45mn 57sBit rate mode : VariableBit rate : 360 KbpsMaximum bit rate : 2 217 KbpsWidth : 320 pixelsHeight : 216 pixelsDisplay aspect ratio : 3:2Frame rate mode : VariableFrame rate : 24.916 fpsOriginal frame rate : 25.000 fpsMinimum frame rate : 0.410 fpsMaximum frame rate : 25.000 fpsColor space : YUVChroma subsampling : 4:2:0Bit depth : 8 bitsScan type : ProgressiveCompression mode : LossyBits/(Pixel*Frame) : 0.209Stream size : 118 MiB (73%)Writing library : XviD 1.2.1 (UTC 2008-12-04)Encoded date : UTC 2012-07-28 06:39:23Tagged date : UTC 2012-07-28 06:39:36

AudioID : 101Format : AACFormat/Info : Advanced Audio CodecFormat profile : LCCodec ID : 40Duration : 45mn 59sBit rate mode : VariableBit rate : 128 KbpsMaximum bit rate : 149 KbpsChannel(s) : 2 channelsChannel positions : Front: L RSampling rate : 48.0 KHzCompression mode : LossyStream size : 42.1 MiB (26%)Encoded date : UTC 2012-07-28 06:39:35Tagged date : UTC 2012-07-28 06:39:36


Трекер:  [ 30-Июл-2012 18:20 ]

  

Скачать .torrent

Размер .torrent файла 15 KB


Размер: 1.41 GB
Хэш (hash) релиза: beb09e1a42b6bc70479b00a0e55d965662bbcdfb

Еще никто не оставлял запись к записи скачать торрент [SERIAL] Твин Пикс . Будь первым!

!Обратная связь