Alien Covenant 2017 PROPER KORSUB HDRip XviD MP3 STUTTERSHIT | Mitchell M. | 2015 MBC Korean Music Festival

Скачать через торрент [SERIAL] Во все тяжкие 5 сезон бесплатно русская версия torrent активатор

Статистика раздачи
Размер:  278 MB   |    Зарегистрирован:  5 лет 11 месяцев   |    .torrent скачан:  84 раза   |   
Раздают:  1  
   
загрузка...
 
Автор Сообщение

Galfimbul

avatar Galfimbul


Во все тяжкие / Breaking Bad

Год выпуска: 2012
Страна: США | AMC
Жанр: Криминал, драма, триллер
Продолжительность: 42 минуты
Перевод: Профессиональный (многоголосый, закадровый) - LostFilm
Русские субтитры: нет
Режиссер: Адам Бернштейн Мишель Максвелл МакЛарен и другие
В ролях: Брайан Крэнстон, Анна Ганн, Аарон Пол, Дин Норрис, Бетси Брандт, Эр Джей Митт, Боб Оденкирк, Джонатан Бэнкс, Джанкарло Эспозито, Стивен Майкл Квезада и другие
Описание: Во все тяжкие (Breaking Bad) — американский телесериал о неизлечимо больном учителе химии, занимающимся изготовлением наркотиков (метамфетамин) ради обеспечения будущего своей семьи.
Релиз:
Качество: WEB-DLRip
Формат: MP4
Видео кодек: XviD
Аудио кодек: AAC
Видео: XviD, 640x360, (16:9), 1000 kbps, 25 fps
Аудио: AAC, 128 kbps, 44 kHz, 2ch
Комментируйте раздачу ( сериал )
  
D:\игры\Breaking.Bad.s05.LostFilm\Breaking.Bad.s05e01.LostFilm.mp4 General Complete name : D:\Breaking.Bad.s05.LostFilm\Breaking.Bad.s05e01.LostFilm.mp4 Format : MPEG-4 Format profile : Base Media / Version 2 Codec ID : mp42 File size : 278 MiB Duration : 42mn 54s Overall bit rate mode : Variable Overall bit rate : 906 Kbps Encoded date : UTC 2012-07-19 07:02:17 Tagged date : UTC 2012-07-19 07:06:29 Writing application : mp4creator 1.6.1d Video #1 ID : 1 Format : MPEG-4 Visual Format profile : Advanced [email protected] Format settings, BVOP : Yes Format settings, QPel : No Format settings, GMC : No warppoints Format settings, Matrix : Default (H.263) Codec ID : 20 Duration : 42mn 54s Bit rate mode : Variable Bit rate : 777 Kbps Maximum bit rate : 2 611 Kbps Width : 640 pixels Height : 360 pixels Display aspect ratio : 16:9 Frame rate mode : Constant Frame rate : 25.000 fps Color space : YUV Chroma subsampling : 4:2:0 Bit depth : 8 bits Scan type : Progressive Compression mode : Lossy Bits/(Pixel*Frame) : 0.135 Stream size : 238 MiB (86%) Language : English Encoded date : UTC 2012-07-19 07:02:17 Tagged date : UTC 2012-07-19 07:05:52 Audio #2 ID : 2 Format : AAC Format/Info : Advanced Audio Codec Format profile : LC Codec ID : 40 Duration : 42mn 53s Source duration : 42mn 54s Bit rate mode : Variable Bit rate : 126 Kbps Maximum bit rate : 275 Kbps Channel(s) : 2 channels Channel positions : Front: L R Sampling rate : 44.1 KHz Compression mode : Lossy Delay relative to video : -40ms Stream size : 38.5 MiB (14%) Source stream size : 38.5 MiB (14%) Language : English Encoded date : UTC 2012-07-19 07:05:54 Tagged date : UTC 2012-07-19 07:06:29
Раздача ведётся путём добавления новых серий; при каждом добавлении создаётся новый торрент. Чтобы начать докачку новой серии, пользователям необходимо сделать следующее:
(1) остановить скачивание,
(2) удалить старый торрент у себя из клиента (старые серии удалять не надо),
(3) скачать новый торрент и запустить его у себя в клиенте вместо старого, при этом указать клиенту путь в старую папку куда и должно происходить скачивание новых серий.

Ваш клиент при этом должен произвести хеширование (проверку) старой папки (если не производит сам - помогите ему сделать это), и будет докачивать только те серии которых у вас ещё нет. Старые серии при этом не удаляются, а продолжают раздаваться!

Eсли вы уже удалили старые серии, то предотвратить повторную закачку старых серий можно, отжав галочку в соответствующих местах при запуске нового торрента. По возможности, желательно не удалять старые серии как можно дольше чтобы релизёр не столько продолжал раздавать старые серии, а смог сконцентрироваться на новых.


Трекер:  [ 24-Июл-2012 19:21 ]

  

Скачать .torrent

Размер .torrent файла 11 KB


Размер: 278 MB
Хэш (hash) релиза: 60bcfcae430523fd4fc98338ee9e0cf778770e1d

Еще никто не оставлял запись к записи скачать торрент [SERIAL] Во все тяжкие 5 сезон . Будь первым!

!Обратная связь