Samsung Galaxy A5 (2017) | Season 1 Episode 13 Episode 13 | I Feel Pretty (2018) [WEBRip] [720p] [YTS AM]

Скачать через торрент [SERIAL] Сообщество Community бесплатно русская версия torrent активатор

Статистика раздачи
Размер:  9.46 GB   |    Зарегистрирован:  5 лет 11 месяцев   |    .torrent скачан:  68 раз   |   
Раздают:  1  
   
загрузка...
 
Автор Сообщение

Galfimbul

avatar Galfimbul


Сообщество / Community

Год выпуска: 2009 - 2012

Страна: США
Жанр: комедия
Продолжительность: ~00:21
Перевод: Профессиональный (двухголосый) (Кубик в Кубе)
Русские субтитры: нет

Режиссер: Энтони Руссо / Anthony Russo

В ролях: Джоэль МакХэйл (Joel McHale), Джиллиан Джейкобс (Gillian Jacobs), Дэнни Пуди (Danny Pudi), Ивет Николь Браун (Yvette Nicole Brown), Чеви Чейз (Chevy Chase), Дональд Гловер (Donald Glover), Элисон Бри (Alison Brie), Кен Йонг (Ken Jeong), Эрик Кристиан Олсен (Eric Christian Olsen), Джим Раш (Jim Rash)

Описание: Сериал рассказывает о студенческом сообществе, которое состоит из школьных лузеров, недавно разведенных домохозяек и пожилых людей, старающихся сохранить трезвый ум.


Качество: WEB-DLRip
Формат: MP4
Видео кодек: XviD
Аудио кодек: AAC
Видео: XviD, 640x360, 16:9, 768 Kbps, 23.976 fps
Аудио: AAC, 128 Kbps, 48.0 KHz, 2 ch.
Pilot
Spanish 101
Introduction to Film
Social Psychology
Advanced Criminal Law
Football, Feminism and You
Introduction to Statistics
Home Economics
Debate 109
Environmental Science
Politics of Human Sexuality
Comparitive Religion
Investigative Journalism
Interpretive Dance
Romantic Expressionism
Communication Studies
Physical Education
Basic Genealogy
Beginner Pottery
The Science of Illusion
Contemporary American Poultry
The Art of Discourse
Modern Warfare
English as a Second Language
Pascal's Triangle Revisited
Anthropology
Accounting for Lawyers
Introduction to Film
Basic Rocket Science
Messianic Myths and Ancient Peoples
Epidemiology
Aerodynamics of Gender
Cooperative Calligraphy
Conspiracy Theories and Interior Design
Mixology Certification
Abed's Uncontrollable Christmas
Asian Population Studies
Celebrity Pharmacology
Advanced Dungeons & Dragons
Early 21st Century Romanticism
Intermediate Documentary Filmmaking
Intro to Political Science
Custody Law and Eastern European Diplomacy
Critical Film Studies
Competitive Wine Tasting
Paradigms of Human Memory
Applied Anthropology and Culinary Arts
A Fist Full of Paintballs
For a Few Paintballs More
Biology 101
Geography of Global Conflict
Competitive Ecology
Remedial Chaos Theory
Horror Fiction in Seven Spooky Steps
Advanced Gay
Studies in Modern Movement
Documentary Filmmaking: Redux
Foosball and Nocturnal Vigilantism
Regional Holiday Music
Urban Matrimony and the Sandwich Arts
Contemporary Impressionists
Digital Exploration of Interior Design
Pillows and Blankets
Origins of Vampire Mythology
Virtual Systems Analysis
Basic Lupine Urology
Course Listing Unavailable
Curriculum Unavailable
Digital Estate Planning
The First Chang Dynasty
Introduction to Finality
  
GeneralComplete name : D:\!РИПЫ\Новая папка\Community.s01e01.rus.eng.720p.Kybik.v.Kybe.mp4Format : MPEG-4Format profile : Base Media / Version 2Codec ID : mp42File size : 163 MiBDuration : 25mn 25sOverall bit rate mode : VariableOverall bit rate : 898 KbpsEncoded date : UTC 2012-07-13 06:28:06Tagged date : UTC 2012-07-13 06:28:06

VideoID : 201Format : MPEG-4 VisualFormat profile : Advanced [email protected] settings, BVOP : NoFormat settings, QPel : NoFormat settings, GMC : No warppointsFormat settings, Matrix : Default (H.263)Codec ID : 20Duration : 25mn 25sBit rate mode : VariableBit rate : 767 KbpsMaximum bit rate : 2 549 KbpsWidth : 640 pixelsHeight : 360 pixelsDisplay aspect ratio : 16:9Frame rate mode : VariableFrame rate : 23.415 fpsOriginal frame rate : 23.976 fpsMinimum frame rate : 0.369 fpsMaximum frame rate : 23.976 fpsColor space : YUVChroma subsampling : 4:2:0Bit depth : 8 bitsScan type : ProgressiveCompression mode : LossyBits/(Pixel*Frame) : 0.142Stream size : 140 MiB (85%)Writing library : XviD 1.2.1 (UTC 2008-12-04)Encoded date : UTC 2012-07-13 06:28:06Tagged date : UTC 2012-07-13 06:28:11

AudioID : 101Format : AACFormat/Info : Advanced Audio CodecFormat profile : LCCodec ID : 40Duration : 25mn 25sBit rate mode : VariableBit rate : 128 KbpsMaximum bit rate : 255 KbpsChannel(s) : 2 channelsChannel positions : Front: L RSampling rate : 48.0 KHzCompression mode : LossyStream size : 23.2 MiB (14%)Encoded date : UTC 2012-07-13 06:28:10Tagged date : UTC 2012-07-13 06:28:11



Трекер:  [ 24-Июл-2012 19:20 ]

  

Скачать .torrent

Размер .torrent файла 53 KB


Размер: 9.46 GB
Хэш (hash) релиза: 76288b6e9dbae0f7dfe75bc6a33ab1f2e96eeb2f

Еще никто не оставлял запись к записи скачать торрент [SERIAL] Сообщество Community . Будь первым!

!Обратная связь