Watch Show | Metallica Through The Never | Психология

Скачать через торрент [SERIAL] Ходячие мертвецы The Walking Dead бесплатно русская версия torrent активатор

Статистика раздачи
Размер:  6.13 GB   |    Зарегистрирован:  5 лет 11 месяцев   |    .torrent скачан:  860 раз   |   
Раздают:  1  
   
загрузка...
 
Автор Сообщение

Galfimbul

avatar Galfimbul


Ходячие мертвецы / The Walking Dead

Год выпуска: 2010 - 2011
Страна: США
Жанр: Ужасы, триллер, фантастика
Продолжительность: 45 минуты
Перевод: Профессиональный (многоголосый, закадровый) - LostFilm
Русские субтитры: нет
Режиссер: Фрэнк Дарабонт, Эрнест Р. Дикерсон, Гай Ферленд
В ролях: Джон Бернтал, Джеффри ДеМун, Лори Холден, Эндрю Линкольн, Адам Минарович, Чендлер Риггз, Майкл Рукер, Сара Уэйн Кэллис и др.
Описание: После страшной болезни, превратившей жителей Земли в зомби, небольшая группа пока еще живых людей изо дня в день борется за выживание в новом, враждебном мире. Под предводительством бывшего полицейского Рика они ищут безопасное для жизни место, но зомби это не самое страшное, что их ждет, основная опасность это жестокое внутреннее соперничество среди выживших..
Релиз:
Качество: DVDRip
Формат: MP4
Видео кодек: XviD
Аудио кодек: AAC
Видео: XviD, 640x360, (16:9), 1000 kbps, 25 fps
Аудио: AAC, 128 kbps, 44 kHz, 2ch[/b]
Комментируйте раздачу ( сериал )
  
D:\\Ходячие мертвецы\\The.Walking.Dead.S01E02.rus.LostFilm.TV.mp4 General Complete name : D:\\Ходячие мертвецы\\The.Walking.Dead.S01E02.rus.LostFilm.TV.mp4 Format : MPEG-4 Format profile : Base Media / Version 2 Codec ID : mp42 File size : 357 MiB Duration : 44mn 58s Overall bit rate mode : Variable Overall bit rate : 1 109 Kbps Encoded date : UTC 2012-07-17 06:22:46 Tagged date : UTC 2012-07-17 06:29:25 Writing application : mp4creator 1.6.1d Video #1 ID : 1 Format : MPEG-4 Visual Format profile : Advanced [email protected] Format settings, BVOP : Yes Format settings, QPel : No Format settings, GMC : No warppoints Format settings, Matrix : Default (H.263) Codec ID : 20 Duration : 44mn 58s Bit rate mode : Variable Bit rate : 987 Kbps Maximum bit rate : 2 356 Kbps Width : 640 pixels Height : 360 pixels Display aspect ratio : 16:9 Frame rate mode : Constant Frame rate : 25.000 fps Color space : YUV Chroma subsampling : 4:2:0 Bit depth : 8 bits Scan type : Progressive Compression mode : Lossy Bits/(Pixel*Frame) : 0.171 Stream size : 317 MiB (89%) Language : English Encoded date : UTC 2012-07-17 06:22:46 Tagged date : UTC 2012-07-17 06:28:37 Audio #2 ID : 2 Format : AAC Format/Info : Advanced Audio Codec Format profile : LC Codec ID : 40 Duration : 44mn 57s Source duration : 44mn 58s Bit rate mode : Variable Bit rate : 119 Kbps Maximum bit rate : 156 Kbps Channel(s) : 2 channels Channel positions : Front: L R Sampling rate : 44.1 KHz Compression mode : Lossy Delay relative to video : -40ms Stream size : 38.2 MiB (11%) Source stream size : 38.2 MiB (11%) Language : English Encoded date : UTC 2012-07-17 06:28:40 Tagged date : UTC 2012-07-17 06:29:25


Трекер:  [ 24-Июл-2012 19:20 ]

  

Скачать .torrent

Размер .torrent файла 17 KB


Размер: 6.13 GB
Хэш (hash) релиза: 3e414cf00d48cbf506c038bf18c375f13e2072f0

Торренты, похожие на [SERIAL] Ходячие мертвецы The Walking Dead скачать торрент

Форум Название Автор Размер S L Добавлен
Видео (Фильмы/Клипы) ·· [SERIAL] Ходячие мертвецы / The Walking Dead / Сезон: 7 / Серии: 1-16 из 16 (Грег Никотеро, Эрнест Р. Дикерсон, Майкл Е. Сатраземис) [2016, США, ужасы, фантастика, триллер, драма, WEB-DLRip] [MP4, 640x] MVO FOX Galfimbul 53645761395 GB 0 0 1496964125

02:22

9-Июн-17

Видео (Фильмы/Клипы) ·· [SERIAL] Ходячие мертвецы / The Walking Dead / Сезон: 7 / Серии: 1-6 из 16 (Крис Грисмер) [2016, США, ужасы, фантастика, триллер, драма, WEB-DLRip] [MP4, 640x] MVO FOX Galfimbul 19373036681.8 GB 0 0 1480767479

15:17

3-Дек-16

Видео (Фильмы/Клипы) ·· [SERIAL] Ходячие мертвецы / The Walking Dead / Сезон: 7 / Серии: 1-5 из 16 (Крис Грисмер) [2016, США, ужасы, фантастика, триллер, драма, WEB-DLRip] [MP4, 640x] MVO FOX Galfimbul 16024105981.49 GB 0 0 1479801732

11:02

22-Ноя-16

Видео (Фильмы/Клипы) ·· [SERIAL] Ходячие мертвецы / The Walking Dead / Сезон: 7 / Серии: 1-4 из 16 (Крис Грисмер) [2016, США, ужасы, фантастика, триллер, драма, WEB-DLRip] [MP4, 640x] MVO FOX Galfimbul 13058950761.22 GB 0 0 1479281700

10:35

16-Ноя-16

Видео (Фильмы/Клипы) ·· [SERIAL] Ходячие мертвецы / The Walking Dead / Сезон: 7 / Серии: 1-2 из 16 (Крис Грисмер) [2016, США, ужасы, фантастика, триллер, драма, WEB-DLRip] [MP4, 640x] MVO FOX Galfimbul 619889582591 MB 0 0 1478290485

23:14

4-Ноя-16

Видео (Фильмы/Клипы) ·· [SERIAL] Ходячие мертвецы / The Walking Dead / Сезон: 7 / Серии: 1 из 16 (Крис Грисмер) [2016, США, ужасы, фантастика, триллер, драма, WEB-DLRip] [MP4, 640x] MVO FOX Galfimbul 311371615297 MB 1 3 1477419089

21:11

25-Окт-16

Видео (Фильмы/Клипы) ·· [SERIAL] Ходячие мертвецы / The Walking Dead / Сезон: 6 / Серии: 1-16 из 16 (Фрэнк Дарабонт / Frank Darabont, Эрнест Р. Дикерсон / Ernest R. Dickerson, Гай Ферленд / Guy Ferland) [2015, США, ужасы, WEB-DLRip][MP4, 480x] MVO FoX Galfimbul 36330642953.38 GB 0 0 1460718538

14:08

15-Апр-16

Видео (Фильмы/Клипы) ·· [SERIAL] Ходячие мертвецы / The Walking Dead / Сезон: 6 / Серии: 1-2 из 16 (Фрэнк Дарабонт / Frank Darabont, Эрнест Р. Дикерсон / Ernest R. Dickerson, Гай Ферленд / Guy Ferland) [2015, США, ужасы, WEB-DLRip][MP4, 480x] MVO FoX Galfimbul 518759560495 MB 0 0 1445319559

08:39

20-Окт-15

Видео (Фильмы/Клипы) ·· [SERIAL] Бойтесь ходячих мертвецов / Fear the Walking Dead / Сезон: 1 / Серии: 1-2 из 6 (Адам Дэвидсон / Adam Davidson, Кари Скогланд / Kari Skogland, Стефан Шварц / Stefan Schwartz) [2015, США, ужасы, драма, HDTVRip][MP4, 480x] MVO AMC Galfimbul 509815760486 MB 0 0 1441010031

11:33

31-Авг-15

Еще никто не оставлял запись к записи скачать торрент [SERIAL] Ходячие мертвецы The Walking Dead . Будь первым!

!Обратная связь