Jack the Giant Killer | SAM HUNT | Danni Lowinski

Скачать через торрент [SERIAL] Счастливы Вместе 6 сезон бесплатно русская версия torrent активатор

Статистика раздачи
Размер:  1.38 GB   |    Зарегистрирован:  5 лет 11 месяцев   |    .torrent скачан:  93 раза   |   
Раздают:  1  
   
загрузка...
 
Автор Сообщение

Galfimbul

avatar Galfimbul


<div align="right"><var class="postImg postImgAligned img-right" title="http://i40.fastpic.ru/big/2012/0710/1f/28d6d1c2d2d5a6c35afab0743a75f51f.jpg">
</var>Счастливы Вместе <br><br> Год выпуска: 2012
Страна: Россия
Жанр: Комедия
Продолжительность: 00:24:00
Перевод: Не требуется
Русские субтитры: нет
Режиссер: Иван Китаев
В ролях: Виктор Логинов, Наталья Бочкарёва, Дарья Сагалова, Александр Якин, Юлия Захарова, Павел Савинков <hr> Описание:«Счастливы
вместе» — это история о средней провинциальной российской семье,
живущей в Екатеринбурге. Они прожили двадцать лет вместе, знают все
слабые и сильные стороны друг друга, и умело используют эти знания в
семейных конфликтах. Гена и Даша Букины постоянно держат друг друга в
тонусе и подкалывают, однако, им удается преодолевать все бытовые
проблемы с юмором. За ссорами, руганью, обидами друг на друга скрывается
настоящая теплота, привязанность и любовь.[/b] <hr>Релиз: <a href="http://vk.com/club26551941" class="postLink"><var class="postImg" title="http://i40.fastpic.ru/big/2012/0715/29/f7720aeb03a5fe9b4e206f240dbeaf29.png">
</var></a> <hr>Качество: SATRip
Формат: MP4
Видео кодек: XviD
Аудио кодек: AAC
Видео: XviD, 640x360, (16:9), 1000 kbps, 25 fps
Аудио: AAC, 128 kbps, 44 kHz, 2ch[/b] <hr>Комментируйте раздачу ( сериал ) <hr>
  
D:\Games\Счастливы Вместе MP4\1 Серия Feokino.mp4 General Complete name : D:\Games\Счастливы Вместе MP4\1 Серия Feokino.mp4 Format : MPEG-4 Format profile : Base Media / Version 2 Codec ID : mp42 File size : 173 MiB Duration : 21mn 33s Overall bit rate mode : Variable Overall bit rate : 1 121 Kbps Encoded date : UTC 2012-07-10 11:58:20 Tagged date : UTC 2012-07-10 12:00:29 Writing application : mp4creator 1.6.1d Video #1 ID : 1 Format : MPEG-4 Visual Format profile : Advanced [email protected] Format settings, BVOP : Yes Format settings, QPel : No Format settings, GMC : No warppoints Format settings, Matrix : Default (H.263) Codec ID : 20 Duration : 21mn 33s Bit rate mode : Variable Bit rate : 999 Kbps Maximum bit rate : 3 916 Kbps Width : 640 pixels Height : 360 pixels Display aspect ratio : 16:9 Frame rate mode : Constant Frame rate : 25.000 fps Color space : YUV Chroma subsampling : 4:2:0 Bit depth : 8 bits Scan type : Progressive Compression mode : Lossy Bits/(Pixel*Frame) : 0.173 Stream size : 154 MiB (89%) Language : English Encoded date : UTC 2012-07-10 11:58:20 Tagged date : UTC 2012-07-10 12:00:11 Audio #2 ID : 2 Format : AAC Format/Info : Advanced Audio Codec Format profile : LC Codec ID : 40 Duration : 21mn 33s Source duration : 21mn 33s Bit rate mode : Variable Bit rate : 119 Kbps Maximum bit rate : 145 Kbps Channel(s) : 2 channels Channel positions : Front: L R Sampling rate : 44.1 KHz Compression mode : Lossy Delay relative to video : -40ms Stream size : 18.4 MiB (11%) Source stream size : 18.4 MiB (11%) Language : English Encoded date : UTC 2012-07-10 12:00:12 Tagged date : UTC 2012-07-10 12:00:29
<a href="http://fastpic.ru/view/43/2012/0710/8dc80f90a6b4affda369c391106f2e83.png.html" class="postLink"><var class="postImg" title="http://i43.fastpic.ru/thumb/2012/0710/83/8dc80f90a6b4affda369c391106f2e83.jpeg">
</var></a>
<a href="http://fastpic.ru/view/42/2012/0710/5092723bde7626dcb9831c1019b6710d.png.html" class="postLink"><var class="postImg" title="http://i42.fastpic.ru/thumb/2012/0710/0d/5092723bde7626dcb9831c1019b6710d.jpeg">
</var></a>
<a href="http://fastpic.ru/view/41/2012/0710/f66bbb74d2c1687f4b7806ab6bfcc7ec.png.html" class="postLink"><var class="postImg" title="http://i41.fastpic.ru/thumb/2012/0710/ec/f66bbb74d2c1687f4b7806ab6bfcc7ec.jpeg">
</var></a>


Трекер:  [ 24-Июл-2012 19:19 ]

  

Скачать .torrent

Размер .torrent файла 14 KB


Размер: 1.38 GB
Хэш (hash) релиза: ae9a5b725b0c7cc514eb62f873ccb9af2ccbecfe

Еще никто не оставлял запись к записи скачать торрент [SERIAL] Счастливы Вместе 6 сезон . Будь первым!

!Обратная связь