vingadores guerra infinita spoilers | Chapter 593 | Pigment - Coloring Book

Скачать через торрент [SERIAL] Город Мечты Magic City бесплатно русская версия torrent активатор

Статистика раздачи
Размер:  1.49 GB   |    Зарегистрирован:  5 лет 11 месяцев   |    .torrent скачан:  58 раз   |   
Раздают:  1  
   
загрузка...
 
Автор Сообщение

Galfimbul

avatar Galfimbul


Город Мечты / Magic City

Год выпуска: 2012

Страна: США
Жанр: Драма, Криминальный, Детектив
Продолжительность: 00:55:00
Перевод: Профессиональный (многоголосый, закадровый)
Русские субтитры: нет
Режиссер: Эд Бьянки
Описание: США, конец 50-х. В живописном местечке Майами Бич возвышается шикарный отель «Мирамар», постояльцами которого являются самые представительные и высокопоставленные люди Соединенных Штатов. Визит знаменитых музыкантов, политиков высшего звена, а так же руководителей мафиозных кланов – будничное и привычное для отеля событие.

Постояльцы развлекаются и отдыхают, в то время как хозяину этого заведения Айку Эвансу (Джеффри Дин Морган) не до развлечения и отдыха. Дело в том, что дневная жизнь в его заведении с веселыми и радужными развлечениями с феерверками, танцами, красочными шоу, детским смехом и теплой атмосферой, сменяет диаметрально противоположная ночная жизнь. Ночью волшебный отель города Мечты становится пристанищем гангстеров, проституток, наркодилеров и стриптизер, вкушающих незаурядные развлечения, богатейшей развлекательной программы отеля. Эвансу приходится разгребать многочисленные проблемы, связанные с пребыванием криминального элемента. Кроме того, в семейной жизни у него далеко не все в полном порядке...

В это же самое время в 320 километрах от побережья Майами к власти на Кубе приходит яростный противник политики Соединенных Штатов Фидель Кастро. Близится первая волна Карибского кризиса.

Качество: HDTVRip
Формат: MP4
Видео кодек: H.264
Аудио кодек: AAC
Видео: MPEG4 Video (H264); 480x272 (16:9); 449 kbps; 24.00fps
Аудио: AAC 44100Hz stereo 126 kbps
Джеффри Дин Морган
В роли: Ike Evans (10 episodes, 2012)

Ольга Куриленко
В роли: Vera Evans (10 episodes, 2012)

Стивен Стрэйт
В роли: Stevie Evans (10 episodes, 2012)

Джессика Маре
В роли: Lily Diamond (10 episodes, 2012)

Сеймур Кэссел
В роли: (10 episodes, 2012)

Кристиан Кук
В роли: Danny Evans (10 episodes, 2012)

Елена Сатине
В роли: Judi Silver (10 episodes, 2012)

Доминик Гарсиа-Лоридо
В роли: Mercedes Lozaro / ... (10 episodes, 2012)

Дэнни Хьюстон
В роли: Ben Diamond (10 episodes, 2012)

Тэйлор Блэкуэлл
В роли: Lauren Evans (10 episodes, 2012)

Дэнни Хьюстон
В роли: Ben Diamond (10 episodes, 2012)

Юл Васкес
В роли: Victor Lazaro (10 episodes, 2012)

Майкл Рисполи
В роли: Bel Jaffe (9 episodes, 2012)

Джон Сенатьемпо
В роли: Vincent Lamb (9 episodes, 2012)

Келли Линч
В роли: Meg Bannock (9 episodes, 2012)
01) Год плавника (The Year of the Fin)
02) Пир акул (Feeding Frenzy)
03) Замки из песка (Castles Made of Sand)
04) Искупление (Atonement)
05) Убийственная блондинка (Suicide Blonde)
06) С высоты падать больнее (The Harder They Fall)
07) Кто везет, а кто погоняет? (Who's the Horse and Who's the Rider?)
  
GeneralComplete name : ...\Magic City [season 1, 480x272, mp4]\Magic.City.S01E01.mp4Format : MPEG-4Format profile : Base Media / Version 2Codec ID : mp42File size : 229 MiBDuration : 55mn 25sOverall bit rate : 577 KbpsEncoded date : UTC 2012-06-07 04:45:27Tagged date : UTC 2012-06-07 04:46:17Writing application : mp4creator 1.4.4

VideoID : 1Format : AVCFormat/Info : Advanced Video CodecFormat profile : <a href="mailto:[email protected]" class="postLink">[email protected]</a> settings, CABAC : NoFormat settings, ReFrames : 2 framesCodec ID : avc1Codec ID/Info : Advanced Video CodingDuration : 55mn 25sBit rate mode : VariableBit rate : 449 KbpsWidth : 480 pixelsHeight : 272 pixelsDisplay aspect ratio : 16:9Frame rate mode : ConstantFrame rate : 24.000 fpsColor space : YUVChroma subsampling : 4:2:0Bit depth : 8 bitsScan type : ProgressiveBits/(Pixel*Frame) : 0.143Stream size : 178 MiB (78%)Language : EnglishEncoded date : UTC 2012-06-07 04:45:28Tagged date : UTC 2012-06-07 04:46:08

AudioID : 2Format : AACFormat/Info : Advanced Audio CodecFormat profile : LCCodec ID : 40Duration : 55mn 24sBit rate mode : VariableBit rate : 126 KbpsMaximum bit rate : 203 KbpsChannel(s) : 2 channelsChannel positions : Front: L RSampling rate : 44.1 KHzCompression mode : LossyStream size : 49.8 MiB (22%)Language : EnglishEncoded date : UTC 2012-06-07 04:46:10Tagged date : UTC 2012-06-07 04:46:17


Трекер:  [ 24-Июл-2012 19:19 ]

  

Скачать .torrent

Размер .torrent файла 15 KB


Размер: 1.49 GB
Хэш (hash) релиза: 482464d38a38776fc63423bdb02f22331ec779ce

Еще никто не оставлял запись к записи скачать торрент [SERIAL] Город Мечты Magic City . Будь первым!

!Обратная связь