Strike Back | Escobar Paradise Lost (2014) [Napisy] | » Vecchia Libreria

Скачать через торрент [VIDEO] Папаши без вредных привычек On ne choisit pas sa famille бесплатно русская версия torrent активатор

Статистика раздачи
Размер:  712 MB   |    Зарегистрирован:  5 лет 11 месяцев   |    .torrent скачан:  41 раз   |   
Раздают:  1  
   
загрузка...
 
Автор Сообщение

Galfimbul

avatar Galfimbul


Папаши без вредных привычек / On ne choisit pas sa famille

Год выпуска: 2011

Страна: Франция
Жанр: Комедия, приключения
Продолжительность: 01:41:24
Перевод: Профессиональный (полное дублирование)
Русские субтитры: нет
Режиссер: Кристиан Клавье / Christian Clavier


Кристиан Клавье, Жан Рено, Мюриэль Робен, Элена Ногуэрра, Мишель Вюйермоз, Майли Флорентин Дао, Хелен Патаро, Анна Гейлор, Кэролайн Англаде, Софи-Шарлотт Хассон

Алекс хочет удочерить очаровательную 5 — летнюю малышку Майли, которая живет в Таиланде. Но по законам этой страны приёмные родители должны быть официально зарегистрированной супружеской парой. Алекс подбивает своего брата, Сезара Борньоли, разорившегося автомобильного дилера, на аферу: он должен поехать с супругой Алекс, Ким в Таиланд, изображая её супруга, что бы забрать оттуда девочку. Но трудно найти более непохожих людей, чем Ким и Сезар. А доктор Луиш, опекун девочки, начинает подозревать неладное…

Качество: HDRip
Формат: MP4
Видео кодек: XviD
Аудио кодек: AAC
XviD (1.2.2) 850kbps 640x264 23.976fps
AAC 128kbps 2ch 16bit 48000khz
  
GeneralComplete name : C:\Users\Слониха\Downloads\Мои раздачи\Papashi.Bez.Vrednyh.Privychek.2011.D.BDRip.x264.potroks.mp4Format : MPEG-4Format profile : Base Media / Version 2Codec ID : mp42File size : 712 MiBDuration : 1h 41mnOverall bit rate mode : VariableOverall bit rate : 981 KbpsEncoded date : UTC 2012-07-19 03:09:54Tagged date : UTC 2012-07-19 03:09:54

VideoID : 201Format : MPEG-4 VisualFormat profile : Advanced [email protected] settings, BVOP : NoFormat settings, QPel : NoFormat settings, GMC : No warppointsFormat settings, Matrix : Default (H.263)Codec ID : 20Duration : 1h 41mnBit rate mode : VariableBit rate : 851 KbpsMaximum bit rate : 4 656 KbpsWidth : 640 pixelsHeight : 264 pixelsDisplay aspect ratio : 2.40:1Frame rate mode : VariableFrame rate : 23.976 fpsMinimum frame rate : 5.994 fpsMaximum frame rate : 23.976 fpsColor space : YUVChroma subsampling : 4:2:0Bit depth : 8 bitsScan type : ProgressiveCompression mode : LossyBits/(Pixel*Frame) : 0.210Stream size : 617 MiB (87%)Writing library : XviD 1.2.1 (UTC 2008-12-04)Encoded date : UTC 2012-07-19 03:09:54Tagged date : UTC 2012-07-19 03:10:42

AudioID : 101Format : AACFormat/Info : Advanced Audio CodecFormat profile : LCCodec ID : 40Duration : 1h 41mnBit rate mode : VariableBit rate : 128 KbpsMaximum bit rate : 148 KbpsChannel(s) : 2 channelsChannel positions : Front: L RSampling rate : 48.0 KHzCompression mode : LossyStream size : 92.9 MiB (13%)Encoded date : UTC 2012-07-19 03:10:38Tagged date : UTC 2012-07-19 03:10:42


Трекер:  [ 30-Июл-2012 18:15 ]

  

Скачать .torrent

Размер .torrent файла 14 KB


Размер: 712 MB
Хэш (hash) релиза: 8275d02dfd56bafab55b49c5f73ece42c613669b

Еще никто не оставлял запись к записи скачать торрент [VIDEO] Папаши без вредных привычек On ne choisit pas sa famille . Будь первым!

!Обратная связь