Фред Татаскьор | Estudios sobre el catolicismo español contemporaneo | Неофициальные сборники (Электронная музыка)

Скачать через торрент [VIDEO] Красная Бригада: Наследие Красная фракция: Происхождение бесплатно русская версия torrent активатор

Статистика раздачи
Размер:  321 MB   |    Зарегистрирован:  5 лет 11 месяцев   |    .torrent скачан:  55 раз   |   
Раздают:  1  
   
загрузка...
 
Автор Сообщение

Galfimbul

avatar Galfimbul


Красная Бригада: Наследие / Красная фракция: Происхождение / Red Faction: Origins

Год выпуска: 2011

Страна: США
Жанр: фантастика
Продолжительность: 01:31:21
Перевод: Профессиональный (многоголосый, закадровый)
Русские субтитры: нет
Режиссер: Майкл Нанкин / Michael Nankin
В ролях: Роберт Патрик, Тэмзин Мерчант, Брайан Смит, Даниэль Николет, Кейт Вернон, Девон Грайе, Гарет Дэвид-Ллойд, Ана Мулвой-Тен, Сара Браун, Роджер Эштон-Гриффитс и др.

Описание: Прошло двадцать пять лет, с тех пор как Алек Мэйсон вел Марсианские Колонии к свободе… и 12 лет, с тех пор как мстительные враги убили его жену, похитили дочь Лиру и оставили сломленного героя с его горем. Для Джейка Мэйсона, единственного сына Алека и офицера войск Red Faction, весь мир вывернут наизнанку, когда он узнаёт, что теперь, спустя 12 лет после похищения, его сестра всё еще жива. Планета полна новым сильным врагом, и Джейк выходит на поиски, только чтобы узнать, что его потерянная сестра ─ одна из них… хладнокровный солдат, поклявшаяся уничтожить Red Faction.

Качество: HDRip
Формат: MP4
Видео кодек: XviD
Аудио кодек: AAC
Видео: XviD (1.2.2) 360kbps 320x176 23.976fps
Аудио: AAC 128kbps 2ch 16bit 48000khz
  
C:\Users\Слониха\Downloads\Мои раздачи\Krasnaj.brigada.HDRip.mp4 General Complete name : C:\Users\Слониха\Downloads\Мои раздачи\Krasnaj.brigada.HDRip.mp4 Format : MPEG-4 Format profile : Base Media / Version 2 Codec ID : mp42 File size : 321 MiB Duration : 1h 31mn Overall bit rate mode : Variable Overall bit rate : 490 Kbps Encoded date : UTC 2012-07-18 02:33:14 Tagged date : UTC 2012-07-18 02:33:14 Video #201 ID : 201 Format : MPEG-4 Visual Format profile : Advanced [email protected] Format settings, BVOP : No Format settings, QPel : No Format settings, GMC : No warppoints Format settings, Matrix : Default (H.263) Codec ID : 20 Duration : 1h 31mn Bit rate mode : Variable Bit rate : 360 Kbps Maximum bit rate : 1 559 Kbps Width : 320 pixels Height : 176 pixels Display aspect ratio : 16:9 Frame rate mode : Variable Frame rate : 23.813 fps Original frame rate : 23.976 fps Minimum frame rate : 0.137 fps Maximum frame rate : 23.976 fps Color space : YUV Chroma subsampling : 4:2:0 Bit depth : 8 bits Scan type : Progressive Compression mode : Lossy Bits/(Pixel*Frame) : 0.268 Stream size : 235 MiB (73%) Writing library : XviD 1.2.1 (UTC 2008-12-04) Encoded date : UTC 2012-07-18 02:33:14 Tagged date : UTC 2012-07-18 02:33:36 Audio #101 ID : 101 Format : AAC Format/Info : Advanced Audio Codec Format profile : LC Codec ID : 40 Duration : 1h 31mn Bit rate mode : Variable Bit rate : 128 Kbps Maximum bit rate : 155 Kbps Channel(s) : 2 channels Channel positions : Front: L R Sampling rate : 48.0 KHz Compression mode : Lossy Stream size : 83.6 MiB (26%) Encoded date : UTC 2012-07-18 02:33:30 Tagged date : UTC 2012-07-18 02:33:36


Трекер:  [ 30-Июл-2012 18:13 ]

  

Скачать .torrent

Размер .torrent файла 13 KB


Размер: 321 MB
Хэш (hash) релиза: 14a1057179a4b3b5ef617f9ab6aa9061b426a15d

Еще никто не оставлял запись к записи скачать торрент [VIDEO] Красная Бригада: Наследие Красная фракция: Происхождение . Будь первым!

!Обратная связь