The Big Fat Quiz o.. (2012) | Frantic | 1988 | 720p | Dual | 8.2

Скачать через торрент [VIDEO] Игла бесплатно русская версия torrent активатор

Статистика раздачи
Размер:  269 MB   |    Зарегистрирован:  5 лет 11 месяцев   |    .torrent скачан:  48 раз   |   
Раздают:  1  
   
загрузка...
 
Автор Сообщение

Galfimbul

avatar Galfimbul


Игла

Год выпуска: 1988

Страна: СССР
Жанр: Триллер, драма, советское кино, криминал
Продолжительность: 01:16:42
Перевод: Не требуется
Русские субтитры: нет
Режиссер: Рашид Нугманов
В ролях: Виктор Цой, Марина Смирнова, Петр Мамонов, Александр Баширов, Архимед Искаков, Геннадий Люй, Александр Конкс, Рахимжан Абдыкадыров, Райхан Канатбаев, Айхан Чатаева, Владимир Даниленко, Гpигopий Эпштeйн, Mapaт Aзимбaeв, Epнap Aбилeв, Pуcтeм Taжибaeв, Игopь Cтapцeв

Описание: Моро приезжает в Алма-Ату, с целью выбить денежный долг из Спартака и не хочет, чтобы родители знали о его приезде, он останавливается у своей подруги Дины, в которую когда-то был влюблён. Дина рада этой встрече, но Моро что-то настораживает в её поведение и вскоре узнаёт, что она стала наркоманкой, а её квартира превратилась в притон и хранилище наркотиков. Он увозит девушку к Аральскому морю, где и начинает лечить Дину от наркотической зависимости. Однако после выздоровления и возвращения в город, всё опять возвращается «на круги своя» и всё начинается сначала. Тогда Моро решает расправиться с поставщиками наркотиков. Однако за одним из поставщиков, Артуром, стоят очень влиятельные люди...

Качество: DVDRip
Формат: MP4
Видео кодек: XviD
Аудио кодек: AAC
Видео: XviD (1.2.2) 360kbps 320x248 25.000fps
Аудио: AAC 128kbps 2ch 16bit 48000khz
  
GeneralComplete name : C:\Users\Слониха\Downloads\Мои раздачи\Igla.1988_[torrents.ru].mp4Format : MPEG-4Format profile : Base Media / Version 2Codec ID : mp42File size : 269 MiBDuration : 1h 16mnOverall bit rate mode : VariableOverall bit rate : 490 KbpsEncoded date : UTC 2012-07-18 04:23:13Tagged date : UTC 2012-07-18 04:23:13

VideoID : 201Format : MPEG-4 VisualFormat profile : Advanced [email protected] settings, BVOP : NoFormat settings, QPel : NoFormat settings, GMC : No warppointsFormat settings, Matrix : Default (H.263)Codec ID : 20Duration : 1h 16mnBit rate mode : VariableBit rate : 359 KbpsMaximum bit rate : 3 230 KbpsWidth : 320 pixelsHeight : 248 pixelsDisplay aspect ratio : 1.290Frame rate mode : ConstantFrame rate : 25.000 fpsColor space : YUVChroma subsampling : 4:2:0Bit depth : 8 bitsScan type : ProgressiveCompression mode : LossyBits/(Pixel*Frame) : 0.181Stream size : 197 MiB (73%)Writing library : XviD 1.2.1 (UTC 2008-12-04)Encoded date : UTC 2012-07-18 04:23:13Tagged date : UTC 2012-07-18 04:23:27

AudioID : 101Format : AACFormat/Info : Advanced Audio CodecFormat profile : LCCodec ID : 40Duration : 1h 16mnBit rate mode : VariableBit rate : 128 KbpsMaximum bit rate : 152 KbpsChannel(s) : 2 channelsChannel positions : Front: L RSampling rate : 48.0 KHzCompression mode : LossyStream size : 70.2 MiB (26%)Encoded date : UTC 2012-07-18 04:23:23Tagged date : UTC 2012-07-18 04:23:27


Трекер:  [ 30-Июл-2012 18:13 ]

  

Скачать .torrent

Размер .torrent файла 11 KB


Размер: 269 MB
Хэш (hash) релиза: fdd4c4faf1b765ea84fb49452e877d54b39229ee

Еще никто не оставлял запись к записи скачать торрент [VIDEO] Игла . Будь первым!

!Обратная связь