Iverson (2014) | Citizen Clark... A ... | I Am Frankie

Скачать через торрент [VIDEO] Женитьба Бальзаминова бесплатно русская версия torrent активатор

Статистика раздачи
Размер:  297 MB   |    Зарегистрирован:  6 лет   |    .torrent скачан:  75 раз   |   
Раздают:  1  
   
загрузка...
 
Автор Сообщение

Galfimbul

avatar Galfimbul


Женитьба Бальзаминова

Год выпуска: 1964

Страна: СССР
Жанр: комедия
Продолжительность: 01:24:40
Перевод: Не требуется
Русские субтитры: нет
Режиссер: Константин Воинов
В ролях: Георгий Вицин, Людмила Шагалова, Лидия Смирнова, Екатерина Савинова, Жанна Прохоренко, Людмила Гурченко, Тамара Носова, Николай Крючков, Ролан Быков, Инна Макарова, Надежда Румянцева, Татьяна Конюхова, Нонна Мордюкова, Геннадий Донягин, Виктор Лазарев, Феликс Сергеев, Григорий Шпигель, Виталий Татаринов, Вадим Завьялов

Описание: Действие фильма происходит в Москве, в XIX веке. Мелкий чиновник Миша Бальзаминов (Георгий Вицин) и его маменька (Людмила Шагалова) мечтают о браке по расчёту. Бальзаминов, ещё не поднявшись с постели, разгадывает смысл сна, обещающего скорую женитьбу. Решая, что сон должен сбыться, Миша выходит на двор, умыться. В это время к ним приезжает сваха и рассказывает о том, что она нашла Мише невесту, и что семейство Бальзаминовых приглашено к семейству невесты, к Ничкиным. Собираясь к Ничкиным, Бальзаминов уже начинает мечтать о том, как потратить приданое. Бальзаминов с маменькой идут пешком, через всю Москву, к Ничкиным. По дороге мамаша, желая представить сына невесте в более выгодном свете, учит его французским, по её мнению, словам: «променаж», «гольтепа», «ассаже». В доме Ничкиных ждут гостей. Подруга Капочки (Жанна Прохоренко), Устенька (Людмила Гурченко), инструктирует Капочку, чтобы та была смелее с женихом…

Качество: DVDRip
Формат: MP4
Видео кодек: XviD
Аудио кодек: AAC
Видео: XviD (1.2.2) 360kbps 320x240 25.000fps
Аудио: AAC 128kbps 2ch 16bit 48000khz
  
GeneralComplete name : C:\Users\Слониха\Downloads\Мои раздачи\Zhenitba.Balzaminova.1964.mp4Format : MPEG-4Format profile : Base Media / Version 2Codec ID : mp42File size : 297 MiBDuration : 1h 24mnOverall bit rate mode : VariableOverall bit rate : 490 KbpsEncoded date : UTC 2012-07-18 06:25:45Tagged date : UTC 2012-07-18 06:25:45

VideoID : 201Format : MPEG-4 VisualFormat profile : Advanced [email protected] settings, BVOP : NoFormat settings, QPel : NoFormat settings, GMC : No warppointsFormat settings, Matrix : Default (H.263)Codec ID : 20Duration : 1h 24mnBit rate mode : VariableBit rate : 360 KbpsMaximum bit rate : 1 451 KbpsWidth : 320 pixelsHeight : 240 pixelsDisplay aspect ratio : 4:3Frame rate mode : VariableFrame rate : 24.986 fpsOriginal frame rate : 25.000 fpsMinimum frame rate : 1.042 fpsMaximum frame rate : 25.000 fpsColor space : YUVChroma subsampling : 4:2:0Bit depth : 8 bitsScan type : ProgressiveCompression mode : LossyBits/(Pixel*Frame) : 0.187Stream size : 218 MiB (73%)Writing library : XviD 1.2.1 (UTC 2008-12-04)Encoded date : UTC 2012-07-18 06:25:45Tagged date : UTC 2012-07-18 06:25:58

AudioID : 101Format : AACFormat/Info : Advanced Audio CodecFormat profile : LCCodec ID : 40Duration : 1h 24mnBit rate mode : VariableBit rate : 128 KbpsMaximum bit rate : 151 KbpsChannel(s) : 2 channelsChannel positions : Front: L RSampling rate : 48.0 KHzCompression mode : LossyStream size : 77.5 MiB (26%)Encoded date : UTC 2012-07-18 06:25:53Tagged date : UTC 2012-07-18 06:25:58


Трекер:  [ 30-Июл-2012 18:13 ]

  

Скачать .torrent

Размер .torrent файла 12 KB


Размер: 297 MB
Хэш (hash) релиза: 1969e14f30edcc93412d998a04360598bae292ea

Еще никто не оставлял запись к записи скачать торрент [VIDEO] Женитьба Бальзаминова . Будь первым!

!Обратная связь