Four Seasons in Havana | 999 Nụ Hôn Bá Đạo Của Nam Thần – Chap 281 | Ghost Wars HDTV

Скачать через торрент [MULT] ВАЛЛ-И WALL-E бесплатно русская версия torrent активатор

Статистика раздачи
Размер:  693 MB   |    Зарегистрирован:  5 лет 11 месяцев   |    .torrent скачан:  43 раза   |   
Раздают:  1  
   
загрузка...
 
Автор Сообщение

Galfimbul

avatar Galfimbul


ВАЛЛ-И / WALL-E«Любовь - дело техники»
Год выпуска: 2008
[b]Продолжительность:
01:38:42
Производство: США
Жанр: мультфильм, фантастика, мелодрама, приключения, семейный
Перевод: Профессиональный (полное дублирование) | [лицензия][/b]
Субтитры: нет
Дата мировой премьеры: 23 июня 2008
Режиссер: Эндрю Стэнтон / Andrew Stanton
Роли озвучивали: Бен Бертт (WALL·E / M-O, озвучка), Элисса Найт (EVE, озвучка), Джефф Гарлин (Captain, озвучка), Фред Уиллард (Shelby Forthright, BnL CEO), Джон Ратценбергер (John, озвучка), Кэти Нэджими (Mary, озвучка), Сигурни Уивер (Ship's Computer, озвучка), Ники МакЭлрой (Pool Mother, озвучка, в титрах не указан), Гаррет Палмер (Blond Boy in BnL Commercial, озвучка, в титрах не указан), Кай Стил Смит (Brown·haired Boy in BnL commercial, озвучка, в титрах не указан), MacInTalk (AUTO, озвучка), Лори Алан (Additional voices, озвучка)
Описание фильма:
Робот ВАЛЛ*И из года в год прилежно трудится на опустевшей Земле, очищая нашу планету от гор мусора, которые оставили после себя улетевшие в космос люди. Он и не представляет, что совсем скоро произойдут невероятные события, благодаря которым он встретит друзей, поднимется к звездам и даже сумеет изменить к лучшему своих бывших хозяев, совсем позабывших родную Землю.
Рейтинг:

Качество: BDRip Формат: MP4 | Видео кодек: H.264 | Аудио кодек: AAC
Видео: 800x336 (AR 2.40:1), 850 Kbps, 23.976 fps | Аудио: 128 Kbps, 48.0 KHz, 2ch, Stereo
General
Complete name : K:\Torrents\Мои раздачи\[MULT4PDA] WALL-E [800x]\WALL-E (BDRip 800x336 x264 AAC).mp4
Format : MPEG-4
Format profile : Base Media
Codec ID : isom
File size : 693 MiB
Duration : 1h 38mn
Overall bit rate mode : Variable
Overall bit rate : 982 Kbps
Encoded date : UTC 2012-07-14 23:29:35
Tagged date : UTC 2012-07-14 23:29:35

Video
ID : 1
Format : AVC
Format/Info : Advanced Video Codec
Format profile : <a href="mailto:[email protected]" class="postLink">[email protected]</a>
Format settings, CABAC : Yes
Format settings, ReFrames : 6 frames
Codec ID : avc1
Codec ID/Info : Advanced Video Coding
Duration : 1h 38mn
Bit rate : 850 Kbps
Maximum bit rate : 9 545 Kbps
Width : 800 pixels
Height : 336 pixels
Display aspect ratio : 2.40:1
Frame rate mode : Constant
Frame rate : 23.976 fps
Color space : YUV
Chroma subsampling : 4:2:0
Bit depth : 8 bits
Scan type : Progressive
Bits/(Pixel*Frame) : 0.132
Stream size : 600 MiB (87%)
Writing library : x264 core 124 r2197 69a0443
Encoding settings : cabac=1 / ref=6 / deblock=1:0:0 / analyse=0x1:0x111 / me=umh / subme=9 / psy=1 / psy_rd=1.00:0.00 / mixed_ref=1 / me_range=24 / chroma_me=1 / trellis=1 / 8x8dct=0 / cqm=0 / deadzone=21,11 / fast_pskip=0 / chroma_qp_offset=-2 / threads=4 / sliced_threads=0 / nr=0 / decimate=1 / interlaced=0 / bluray_compat=0 / constrained_intra=0 / bframes=6 / b_pyramid=2 / b_adapt=2 / b_bias=0 / direct=3 / weightb=1 / open_gop=0 / weightp=2 / keyint=250 / keyint_min=23 / scenecut=40 / intra_refresh=0 / rc_lookahead=40 / rc=2pass / mbtree=1 / bitrate=850 / ratetol=1.0 / qcomp=0.60 / qpmin=0 / qpmax=69 / qpstep=4 / cplxblur=20.0 / qblur=0.5 / ip_ratio=1.40 / aq=1:1.00
Encoded date : UTC 2012-07-14 23:29:35
Tagged date : UTC 2012-07-14 23:30:10

Audio
ID : 2
Format : AAC
Format/Info : Advanced Audio Codec
Format profile : LC
Codec ID : 40
Duration : 1h 38mn
Bit rate mode : Variable
Bit rate : 128 Kbps
Maximum bit rate : 159 Kbps
Channel(s) : 2 channels
Channel positions : Front: L R
Sampling rate : 48.0 KHz
Compression mode : Lossy
Stream size : 90.4 MiB (13%)
Encoded date : UTC 2012-07-14 23:30:06
Tagged date : UTC 2012-07-14 23:30:10
x264 [info]: frame I:1390 Avg QP:15.57 size: 39247
x264 [info]: frame P:36741 Avg QP:19.29 size: 9552
x264 [info]: frame B:103855 Avg QP:22.90 size: 2154
x264 [info]: consecutive B-frames: 4.4% 4.8% 12.0% 30.2% 15.1% 27.3% 6.1%
x264 [info]: mb I I16..4: 25.6% 0.0% 74.4%
x264 [info]: mb P I16..4: 5.0% 0.0% 7.9% P16..4: 39.6% 19.6% 12.7% 0.0% 0.0% skip:15.3%
x264 [info]: mb B I16..4: 0.4% 0.0% 0.8% B16..8: 34.3% 5.9% 1.9% direct: 3.0% skip:53.6% L0:41.6% L1:48.3% BI:10.1%
x264 [info]: direct mvs spatial:90.5% temporal:9.5%
x264 [info]: coded y,uvDC,uvAC intra: 67.4% 73.4% 46.5% inter: 11.8% 14.5% 3.2%
x264 [info]: i16 v,h,dc,p: 21% 25% 8% 45%
x264 [info]: i4 v,h,dc,ddl,ddr,vr,hd,vl,hu: 8% 13% 5% 8% 13% 11% 15% 10% 16%
x264 [info]: i8c dc,h,v,p: 34% 32% 17% 17%
x264 [info]: Weighted P-Frames: Y:7.3% UV:4.3%
x264 [info]: ref P L0: 56.2% 11.4% 14.5% 7.3% 4.4% 5.0% 1.1% 0.1%
x264 [info]: ref B L0: 80.3% 9.7% 6.6% 2.3% 1.1%
x264 [info]: ref B L1: 91.5% 8.5%
x264 [info]: kb/s:849.93


Трекер:  [ 30-Июл-2012 18:13 ]

  

Скачать .torrent

Размер .torrent файла 14 KB


Размер: 693 MB
Хэш (hash) релиза: d0467e2f8e010d0c65cc2cd6f6c49c565e02da85

Еще никто не оставлял запись к записи скачать торрент [MULT] ВАЛЛ-И WALL-E . Будь первым!

!Обратная связь