Microsoft BizTalk Server 2016 | IMDb: 4.9 HD Middleground | Streaminfr.com

Скачать через торрент [VIDEO] Встреча со злом Абсолютное зло бесплатно русская версия torrent активатор

Статистика раздачи
Размер:  592 MB   |    Зарегистрирован:  5 лет 11 месяцев   |    .torrent скачан:  40 раз   |   
Раздают:  1  
   
загрузка...
 
Автор Сообщение

Galfimbul

avatar Galfimbul


Встреча со злом / Абсолютное зло / Meeting Evil

Год выпуска: 2011

Страна: США
Жанр: триллер, драма, криминал, детектив
Продолжительность: 01:29:06
Перевод: Любительский (двухголосый)
Русские субтитры: нет
Режиссер: Крис Фишер / Chris Fisher
В ролях: Сэмюэл Л. Джексон, Люк Уилсон, Лесли Бибб, Пейтон Лист, Трейси Томс, Райан Ли, Мьюз Уотсон, Дж.Д. Эвермор, Джиллиан Басерсон, Джейсон Алан Смит

Описание: Разочарованный жизнью молодой семьянин Джон открывает дверь таинственному незнакомцу Ричи. С этой минуты, сам того не желая, Джон становится участником убийственной поездки, которая преображает его из человека со слабой волей в отчаянного героя, готового пойти на все, чтобы защитить свою семью.

Качество: HDRip
Формат: MP4
Видео кодек: XviD
Аудио кодек: AAC
Видео: XviD (1.2.2) 800kbps 640x360 23.976fps
Аудио: AAC 128kbps 2ch 16bit 48000khz
  
GeneralComplete name : C:\Users\Слониха\Downloads\Мои раздачи\Meeting.Evil.2012.BDRip.x264.DVO.Eng.Sub.mp4Format : MPEG-4Format profile : Base Media / Version 2Codec ID : mp42File size : 592 MiBDuration : 1h 28mnOverall bit rate mode : VariableOverall bit rate : 930 KbpsEncoded date : UTC 2012-07-18 12:51:30Tagged date : UTC 2012-07-18 12:51:30

VideoID : 201Format : MPEG-4 VisualFormat profile : Advanced [email protected] settings, BVOP : NoFormat settings, QPel : NoFormat settings, GMC : No warppointsFormat settings, Matrix : Default (H.263)Codec ID : 20Duration : 1h 28mnBit rate mode : VariableBit rate : 800 KbpsMaximum bit rate : 5 385 KbpsWidth : 640 pixelsHeight : 360 pixelsDisplay aspect ratio : 16:9Frame rate mode : VariableFrame rate : 23.958 fpsOriginal frame rate : 23.976 fpsMinimum frame rate : 0.545 fpsMaximum frame rate : 23.976 fpsColor space : YUVChroma subsampling : 4:2:0Bit depth : 8 bitsScan type : ProgressiveCompression mode : LossyBits/(Pixel*Frame) : 0.145Stream size : 509 MiB (86%)Writing library : XviD 1.2.1 (UTC 2008-12-04)Encoded date : UTC 2012-07-18 12:51:30Tagged date : UTC 2012-07-18 12:51:58

AudioID : 101Format : AACFormat/Info : Advanced Audio CodecFormat profile : LCCodec ID : 40Duration : 1h 28mnBit rate mode : VariableBit rate : 128 KbpsMaximum bit rate : 213 KbpsChannel(s) : 2 channelsChannel positions : Front: L RSampling rate : 48.0 KHzCompression mode : LossyStream size : 81.4 MiB (14%)Encoded date : UTC 2012-07-18 12:51:55Tagged date : UTC 2012-07-18 12:51:58


Трекер:  [ 30-Июл-2012 18:13 ]

  

Скачать .torrent

Размер .torrent файла 12 KB


Размер: 592 MB
Хэш (hash) релиза: e60c4d0000798f065db36360cfbc548dd4f5a228

Еще никто не оставлял запись к записи скачать торрент [VIDEO] Встреча со злом Абсолютное зло . Будь первым!

!Обратная связь