Florida-Carribean Architect – Fall 2014 | June 2015 (3) | Přátelé

Скачать через торрент [VIDEO] Кокон 2 : Возвращение Cocoon: The Return бесплатно русская версия torrent активатор

Статистика раздачи
Размер:  691 MB   |    Зарегистрирован:  5 лет 11 месяцев   |    .torrent скачан:  52 раза   |   
Раздают:  1  
   
загрузка...
 
Автор Сообщение

Galfimbul

avatar Galfimbul


Кокон 2 : Возвращение / Cocoon: The Return

Год выпуска: 1988

Страна: США
Жанр: Фантастика
Продолжительность: 01:56:10
Перевод: Профессиональный (двухголосый)
Русские субтитры: нет
Режиссер: Дэниэл Петри /Daniel Petrie
В ролях: Дон Амиче /Don Ameche/, Уилфорд Бримли /Wilford Brimley/, Кортни Кокс /Courteney Cox/, Стив Гаттенберг /Steve Guttenberg/, Морин Стэплтон /Maureen Stapleton/, Хьюм Кронин /Hume Cronyn

Описание: Забавные старички, улетевшие с инопланетянами, возвращаются, чтобы закончить кое-какие дела и помочь своим друзьям спасти пришельца, который был найден землянами в подводном коконе. Кокон поместили в океанографический институт, где из-за уникальных телепатических способностей он стал объектом пристального внимания военных.

Качество: DVDRip
Формат: MP4
Видео кодек: XviD
Аудио кодек: AAC
Видео: XviD (1.2.2) 700kbps 640x344 23.976fps
Аудио: AAC 128kbps 2ch 16bit 48000khz
  
GeneralComplete name : C:\Users\Слониха\Downloads\Мои раздачи\cocoon_2.mp4Format : MPEG-4Format profile : Base Media / Version 2Codec ID : mp42File size : 691 MiBDuration : 1h 56mnOverall bit rate mode : VariableOverall bit rate : 830 KbpsEncoded date : UTC 2012-07-18 15:08:30Tagged date : UTC 2012-07-18 15:08:30

VideoID : 201Format : MPEG-4 VisualFormat profile : Advanced [email protected] settings, BVOP : NoFormat settings, QPel : NoFormat settings, GMC : No warppointsFormat settings, Matrix : Default (H.263)Codec ID : 20Duration : 1h 56mnBit rate mode : VariableBit rate : 700 KbpsMaximum bit rate : 3 043 KbpsWidth : 640 pixelsHeight : 344 pixelsDisplay aspect ratio : 1.85:1Frame rate mode : VariableFrame rate : 23.941 fpsOriginal frame rate : 23.976 fpsMinimum frame rate : 0.146 fpsMaximum frame rate : 23.976 fpsColor space : YUVChroma subsampling : 4:2:0Bit depth : 8 bitsScan type : ProgressiveCompression mode : LossyBits/(Pixel*Frame) : 0.133Stream size : 582 MiB (84%)Writing library : XviD 1.2.1 (UTC 2008-12-04)Encoded date : UTC 2012-07-18 15:08:30Tagged date : UTC 2012-07-18 15:09:03

AudioID : 101Format : AACFormat/Info : Advanced Audio CodecFormat profile : LCCodec ID : 40Duration : 1h 56mnBit rate mode : VariableBit rate : 128 KbpsMaximum bit rate : 149 KbpsChannel(s) : 2 channelsChannel positions : Front: L RSampling rate : 48.0 KHzCompression mode : LossyStream size : 107 MiB (15%)Encoded date : UTC 2012-07-18 15:08:54Tagged date : UTC 2012-07-18 15:09:03


Трекер:  [ 30-Июл-2012 18:13 ]

  

Скачать .torrent

Размер .torrent файла 14 KB


Размер: 691 MB
Хэш (hash) релиза: 14df676db435d7a983f903f35d8abeba421bf9b2

Еще никто не оставлял запись к записи скачать торрент [VIDEO] Кокон 2 : Возвращение Cocoon: The Return . Будь первым!

!Обратная связь