H. P. Lovecrafts - Bibliothek des Schreckens 01 - 09 | Lucy Liu, Mandy Patinkin, Shawn Mendes | Mord mit Aussicht

Скачать через торрент [VIDEO] Железное небо Iron Sky бесплатно русская версия torrent активатор

Статистика раздачи
Размер:  582 MB   |    Зарегистрирован:  5 лет 11 месяцев   |    .torrent скачан:  44 раза   |   
Раздают:  1  
   
загрузка...
 
Автор Сообщение

Galfimbul

avatar Galfimbul


Железное небо / Iron Sky

Год выпуска: 2012

Страна: Германия, Финляндия, Австралия
Жанр: Фантастика, боевик, комедия
Продолжительность: 01:32:26
Перевод: Профессиональный (многоголосый, закадровый)
Русские субтитры: нет
Режиссер: Тимо Вуоренсола
В ролях: Юлия Дитце, Пета Сержант, Ким Джексон, Удо Кир, Стефани Пол, Кристофер Кирби, Гёц Отто, Моника Госсманн, Юки Ивамото, Джим Нобелок



Группа ученых под руководством офицера СС Ханса Каммлера добилась серьезных успехов по части антигравитации. Когда исход Второй Мировой войны стал очевиден, с антарктической базы гитлеровцы запустили несколько космических кораблей, чтобы их экипаж на темной стороне Луны основал секретную военную базу Schwarze Sonne (Черное Солнце). План Германии состоял в возведении мощной армады для решающего удара по Земле с последующим завоеванием планеты. И в 2018 году Четвертый Рейх перешел в наступление.

Качество: HDRip
Формат: MP4
Видео кодек: XviD
Аудио кодек: AAC
Видео: XviD (1.2.2) 750kbps 640x272 24.000fps
Аудио: AAC 128kbps 2ch 16bit 48000khz
  
GeneralComplete name : C:\Users\Слониха\Downloads\Мои раздачи\Zheleznoe.Nebo.2012.P.HDRip.mp4Format : MPEG-4Format profile : Base Media / Version 2Codec ID : mp42File size : 582 MiBDuration : 1h 32mnOverall bit rate mode : VariableOverall bit rate : 880 KbpsEncoded date : UTC 2012-07-17 12:20:42Tagged date : UTC 2012-07-17 12:20:42

VideoID : 201Format : MPEG-4 VisualFormat profile : Advanced [email protected] settings, BVOP : NoFormat settings, QPel : NoFormat settings, GMC : No warppointsFormat settings, Matrix : Default (H.263)Codec ID : 20Duration : 1h 32mnBit rate mode : VariableBit rate : 750 KbpsMaximum bit rate : 6 306 KbpsWidth : 640 pixelsHeight : 272 pixelsDisplay aspect ratio : 2.35:1Frame rate mode : VariableFrame rate : 23.962 fpsOriginal frame rate : 24.000 fpsMinimum frame rate : 0.381 fpsMaximum frame rate : 24.000 fpsColor space : YUVChroma subsampling : 4:2:0Bit depth : 8 bitsScan type : ProgressiveCompression mode : LossyBits/(Pixel*Frame) : 0.180Stream size : 495 MiB (85%)Writing library : XviD 1.2.1 (UTC 2008-12-04)Encoded date : UTC 2012-07-17 12:20:42Tagged date : UTC 2012-07-17 12:21:26

AudioID : 101Format : AACFormat/Info : Advanced Audio CodecFormat profile : LCCodec ID : 40Duration : 1h 32mnBit rate mode : VariableBit rate : 128 KbpsMaximum bit rate : 186 KbpsChannel(s) : 2 channelsChannel positions : Front: L RSampling rate : 48.0 KHzCompression mode : LossyStream size : 84.7 MiB (15%)Encoded date : UTC 2012-07-17 12:21:22Tagged date : UTC 2012-07-17 12:21:26


Трекер:  [ 30-Июл-2012 18:12 ]

  

Скачать .torrent

Размер .torrent файла 12 KB


Размер: 582 MB
Хэш (hash) релиза: 0ff730e898b0cdc5a1f7d362ceed6e22b2068439

Еще никто не оставлял запись к записи скачать торрент [VIDEO] Железное небо Iron Sky . Будь первым!

!Обратная связь