..."/> ..."> Lo And Behold - 愛.回家之開心速遞Lo And Behold | Más detalles | Demigodchina

Скачать через торрент [VIDEO] Коммандо Commando бесплатно русская версия torrent активатор

Статистика раздачи
Размер:  317 MB   |    Зарегистрирован:  5 лет 11 месяцев   |    .torrent скачан:  47 раз   |   
Раздают:  1  
   
загрузка...
 
Автор Сообщение

Galfimbul

avatar Galfimbul


Коммандо / Commando

Год выпуска: 1985

Страна: США
Жанр: боевик
Продолжительность: 01:30:15
Перевод: Профессиональный (многоголосый, закадровый)
Русские субтитры: нет
Режиссер: Марк Л. Лестер /Mark L. Lester
В ролях: Арнольд Шварценеггер /Arnold Schwarzenegger/, Рэй Доун Чонг /Rae Dawn Chong/, Дэн Хедайя /Dan Hedaya/, Вернон Уэллс /Vernon Wells/, Джеймс Олсон /James Olson/, Дэвид Пэтрик Келли /David Patrick Kelly

Описание: Художественный фильм Коммандо суть американская "Повесть о настоящем человеке". В фильме действует талантливый актёр - Арнольд Шварценеггер, гениально сыгравший самого себя в расцвете сил. В этом фильме Арнольда зовут полковник Мэтрикс (Matrix, то есть Матрица).

И вот у полковника Мэтрикса злые люди похитили дочь. Что, как известно, баааальшая ошибка!!! И в обмен на её жизнь Арнольду предлагают убить президента какой-то банановой республики. С первых кадров становится понятно, что живым не уйдёт никто.

Настоящий полковник Арнольд говорит: I'll be back!!! - после чего все негодяи принимают смерть лютую различными экзотическими способами. Финальная драка в кочегарке являет собой несомненный шедевр мировой кинематографии.

В фильме присутствует всё, что должно быть в правильном фильме про Арнольда: железная поступь титана, каменная морда, зверские взгляды искоса, изрядное количество тупых шуток, горы трупов (88 человек убитыми) и насилие в количестве, нынешним режиссёрам и не снящемся...

Качество: HDRip
Формат: MP4
Видео кодек: XviD
Аудио кодек: AAC
Видео: XviD, 320x176, 360 Kbps, 23.976 fps
Аудио: AAC, 128 kbps, 48 KHz, 2 ch
  
C:\Users\Слониха\Downloads\Мои раздачи\Коммандо (1985. Commando).mp4 General Complete name : C:\Users\Слониха\Downloads\Мои раздачи\Коммандо (1985. Commando).mp4 Format : MPEG-4 Format profile : Base Media / Version 2 Codec ID : mp42 File size : 317 MiB Duration : 1h 30mn Overall bit rate mode : Variable Overall bit rate : 491 Kbps Encoded date : UTC 2012-07-17 15:00:00 Tagged date : UTC 2012-07-17 15:00:00 Video #201 ID : 201 Format : MPEG-4 Visual Format profile : Advanced [email protected] Format settings, BVOP : No Format settings, QPel : No Format settings, GMC : No warppoints Format settings, Matrix : Default (H.263) Codec ID : 20 Duration : 1h 30mn Bit rate mode : Variable Bit rate : 360 Kbps Maximum bit rate : 2 818 Kbps Width : 320 pixels Height : 176 pixels Display aspect ratio : 16:9 Frame rate mode : Variable Frame rate : 23.964 fps Original frame rate : 23.976 fps Minimum frame rate : 0.406 fps Maximum frame rate : 23.976 fps Color space : YUV Chroma subsampling : 4:2:0 Bit depth : 8 bits Scan type : Progressive Compression mode : Lossy Bits/(Pixel*Frame) : 0.267 Stream size : 232 MiB (73%) Writing library : XviD 1.2.1 (UTC 2008-12-04) Encoded date : UTC 2012-07-17 15:00:00 Tagged date : UTC 2012-07-17 15:00:16 Audio #101 ID : 101 Format : AAC Format/Info : Advanced Audio Codec Format profile : LC Codec ID : 40 Duration : 1h 30mn Bit rate mode : Variable Bit rate : 128 Kbps Maximum bit rate : 152 Kbps Channel(s) : 2 channels Channel positions : Front: L R Sampling rate : 48.0 KHz Compression mode : Lossy Stream size : 82.6 MiB (26%) Encoded date : UTC 2012-07-17 15:00:12 Tagged date : UTC 2012-07-17 15:00:16


Трекер:  [ 30-Июл-2012 18:12 ]

  

Скачать .torrent

Размер .torrent файла 13 KB


Размер: 317 MB
Хэш (hash) релиза: 03b3e7e76352a4cb9a11004af4f5c716d64491b5

Еще никто не оставлял запись к записи скачать торрент [VIDEO] Коммандо Commando . Будь первым!

!Обратная связь