Loreena McKennitt - The Holly & the Ivy | Constantine: City of Demons | Compassion

Скачать через торрент [VIDEO] Темная вода Dark Water бесплатно русская версия torrent активатор

Статистика раздачи
Размер:  367 MB   |    Зарегистрирован:  5 лет 11 месяцев   |    .torrent скачан:  34 раза   |   
Раздают:  1  
   
загрузка...
 
Автор Сообщение

Galfimbul

avatar Galfimbul


Темная вода / Dark Water

Год выпуска: 2005

Страна: США
Жанр: Ужасы, триллер, драма
Продолжительность: 01:44:40
Перевод: Профессиональный (полное дублирование)
Русские субтитры: нет
Режиссер: Уолтер Сэллз / Walter Salles
В ролях: Дженнифер Коннелли, Джон С. Рейлли, Тим Рот, Дугрэй Скотт, Пит Постлетуэйт, Кэмрин Мэнхайм, Эриел Гэйд, Перла Хани-Жардин, Дебра Монк, Линда Имонд

Описание: Далиа Уильямс начинает новую жизнь. У нее новая квартира, новая работа, и она решает забыть про мужа, с которым не сложилось, и посвятить себя всю воспитанию дочери, Сеси. Но когда разлука превращается в битву за опекунство над дочкой, ситуация для Далии меняется к худшему. К тому же ее некрасивая, тесная и обветшалая квартира, похоже, живет своей жизнью. Загадочные звуки, постоянные подтеки темной воды и разные загадочные происшествия сводят ее с ума. Далиа решает узнать, кто стоит за всеми этими играми с сознанием. В то время, как она отчаянно ищет какую бы то ни было связь между загадками, темная вода потихоньку смыкается вокруг нее. Но Далии все равно, она не остановится ни перед чем, пока не узнает в чем дело…

Качество: HDRip
Формат: MP4
Видео кодек: XviD
Аудио кодек: AAC
Видео: XviD (1.2.2) 360kbps 320x136 23.976fps
Аудио: AAC 128kbps 2ch 16bit 48000khz
  
C:\Users\Слониха\Downloads\Мои раздачи\Temnaya.voda.2005.TRIPLE.BDRip.XviD.AC3.-HQCLUB.mp4 General Complete name : C:\Users\Слониха\Downloads\Мои раздачи\Temnaya.voda.2005.TRIPLE.BDRip.XviD.AC3.-HQCLUB.mp4 Format : MPEG-4 Format profile : Base Media / Version 2 Codec ID : mp42 File size : 367 MiB Duration : 1h 44mn Overall bit rate mode : Variable Overall bit rate : 490 Kbps Encoded date : UTC 2012-07-17 15:58:04 Tagged date : UTC 2012-07-17 15:58:04 Video #201 ID : 201 Format : MPEG-4 Visual Format profile : Advanced [email protected] Format settings, BVOP : No Format settings, QPel : No Format settings, GMC : No warppoints Format settings, Matrix : Default (H.263) Codec ID : 20 Duration : 1h 44mn Bit rate mode : Variable Bit rate : 360 Kbps Maximum bit rate : 2 616 Kbps Width : 320 pixels Height : 136 pixels Display aspect ratio : 2.35:1 Frame rate mode : Variable Frame rate : 23.900 fps Original frame rate : 23.976 fps Minimum frame rate : 0.135 fps Maximum frame rate : 23.976 fps Color space : YUV Chroma subsampling : 4:2:0 Bit depth : 8 bits Scan type : Progressive Compression mode : Lossy Bits/(Pixel*Frame) : 0.346 Stream size : 269 MiB (73%) Writing library : XviD 1.2.1 (UTC 2008-12-04) Encoded date : UTC 2012-07-17 15:58:04 Tagged date : UTC 2012-07-17 15:58:18 Audio #101 ID : 101 Format : AAC Format/Info : Advanced Audio Codec Format profile : LC Codec ID : 40 Duration : 1h 44mn Bit rate mode : Variable Bit rate : 128 Kbps Maximum bit rate : 161 Kbps Channel(s) : 2 channels Channel positions : Front: L R Sampling rate : 48.0 KHz Compression mode : Lossy Stream size : 95.6 MiB (26%) Encoded date : UTC 2012-07-17 15:58:14 Tagged date : UTC 2012-07-17 15:58:18


Трекер:  [ 30-Июл-2012 18:12 ]

  

Скачать .torrent

Размер .torrent файла 15 KB


Размер: 367 MB
Хэш (hash) релиза: a87b1379d31d51cbb7b58def44d44290ed4b8076

Еще никто не оставлял запись к записи скачать торрент [VIDEO] Темная вода Dark Water . Будь первым!

!Обратная связь