Animal.Kingdom.US.S01E07.720p.HDTV.X264-DIMENSION[eztv]-eng.srt | Javier Fesser | Blindspot

Скачать через торрент музыку illScarlett - EPdemic бесплатно без регистрации torrent

Статистика раздачи
Размер:  204 MB   |    Зарегистрирован:  6 лет 1 месяц   |    .torrent скачан:  74 раза   |   
Раздают:  1  
   
загрузка...
 
Автор Сообщение

Centner1

avatar Centner1




illScarlett / EPdemic [EP]

Жанр: Reggae / Ska Punk
Страна-производитель диска: USA, Canada
Год издания: 2006
Страна: USA, Canada
Аудиокодек: FLAC (*.flac)
Тип рипа: tracks+.cue
Битрейт аудио: lossless
Продолжительность: 00:28:46
Наличие сканов в содержимом раздачи: нет
Треклист:
1. First Shot – 3:26
2. Heaters – 3:01
3. One-A – 3:43
4. N.T.F. – 3:38
5. Not A Prophecy – 3:36
6. Mary Jane – 3:44
7. Pacino – 2:59
8. Rally – 4:44

  
Exact Audio Copy V0.99 prebeta 4 from 23. January 2008

EAC extraction logfile from 14. May 2008, 16:07

illScarlett / EPdemic

Used drive : BENQ DVD DUAL DW1610 Adapter: 1 ID: 1

Read mode : SecureUtilize accurate stream : YesDefeat audio cache : YesMake use of C2 pointers : No

Read offset correction : 618Overread into Lead-In and Lead-Out : NoFill up missing offset samples with silence : YesDelete leading and trailing silent blocks : NoNull samples used in CRC calculations : YesUsed interface : Native Win32 interface for Win NT & 2000Gap handling : Appended to previous track

Used output format : User Defined EncoderSelected bitrate : 128 kBit/sQuality : HighAdd ID3 tag : NoCommand line compressor : C:\Program Files\FLAC\flac.exeAdditional command line options : -V -8 -T \"artist=%a\" -T \"title=%t\" -T \"album=%g\" -T \"date=%y\" -T \"tracknumber=%n\" -T \"genre=%m\" %s

TOC of the extracted CD

Track | Start | Length | Start sector | End sector --------------------------------------------------------- 1 | 0:00.00 | 3:26.32 | 0 | 15481 2 | 3:26.32 | 3:01.53 | 15482 | 29109 3 | 6:28.10 | 3:42.61 | 29110 | 45820 4 | 10:10.71 | 3:37.73 | 45821 | 62168 5 | 13:48.69 | 3:35.17 | 62169 | 78310 6 | 17:24.11 | 3:43.14 | 78311 | 95049 7 | 21:07.25 | 2:59.45 | 95050 | 108519 8 | 24:06.70 | 4:43.04 | 108520 | 129748

Track 1

Filename C:\Documents and Settings\Remote\Desktop\illScarlett\EPdemic\01 - First Shot.wav

Pre-gap length 0:00:02.00

Peak level 98.8 % Track quality 100.0 % Test CRC A0B14950 Copy CRC A0B14950 Copy OK

Track 2

Filename C:\Documents and Settings\Remote\Desktop\illScarlett\EPdemic\02 - Heaters.wav

Peak level 98.8 % Track quality 100.0 % Test CRC 932608F5 Copy CRC 932608F5 Copy OK

Track 3

Filename C:\Documents and Settings\Remote\Desktop\illScarlett\EPdemic\03 - One-A.wav

Peak level 98.8 % Track quality 99.9 % Test CRC BAB314CA Copy CRC BAB314CA Copy OK

Track 4

Filename C:\Documents and Settings\Remote\Desktop\illScarlett\EPdemic\04 - N.T.F..wav

Peak level 98.1 % Track quality 100.0 % Test CRC 2D556685 Copy CRC 2D556685 Copy OK

Track 5

Filename C:\Documents and Settings\Remote\Desktop\illScarlett\EPdemic\05 - Not a Prophecy.wav

Peak level 98.4 % Track quality 100.0 % Test CRC 6BAB8AD9 Copy CRC 6BAB8AD9 Copy OK

Track 6

Filename C:\Documents and Settings\Remote\Desktop\illScarlett\EPdemic\06 - Mary Jane.wav

Peak level 98.8 % Track quality 100.0 % Test CRC 8E15BFA5 Copy CRC 8E15BFA5 Copy OK

Track 7

Filename C:\Documents and Settings\Remote\Desktop\illScarlett\EPdemic\07 - Pacino.wav

Peak level 98.8 % Track quality 100.0 % Test CRC 98A4756B Copy CRC 98A4756B Copy OK

Track 8

Filename C:\Documents and Settings\Remote\Desktop\illScarlett\EPdemic\08 - Rally.wav

Peak level 98.6 % Track quality 100.0 % Test CRC 4D3D4929 Copy CRC 4D3D4929 Copy OK

No errors occurred

End of status report
  
REM GENRE RockREM DATE 2006REM DISCID 5A06C108REM COMMENT "ExactAudioCopy v0.99pb4"PERFORMER "illScarlett"TITLE "EPdemic"FILE "illScarlett\EPdemic\01 - First Shot.wav" WAVE TRACK 01 AUDIO TITLE "First Shot" PERFORMER "illScarlett" FLAGS DCP INDEX 01 00:00:00FILE "illScarlett\EPdemic\02 - Heaters.wav" WAVE TRACK 02 AUDIO TITLE "Heaters" PERFORMER "illScarlett" FLAGS DCP INDEX 01 00:00:00FILE "illScarlett\EPdemic\03 - One-A.wav" WAVE TRACK 03 AUDIO TITLE "One-A" PERFORMER "illScarlett" FLAGS DCP INDEX 01 00:00:00FILE "illScarlett\EPdemic\04 - N.T.F..wav" WAVE TRACK 04 AUDIO TITLE "N.T.F." PERFORMER "illScarlett" FLAGS DCP INDEX 01 00:00:00FILE "illScarlett\EPdemic\05 - Not a Prophecy.wav" WAVE TRACK 05 AUDIO TITLE "Not a Prophecy" PERFORMER "illScarlett" FLAGS DCP INDEX 01 00:00:00FILE "illScarlett\EPdemic\06 - Mary Jane.wav" WAVE TRACK 06 AUDIO TITLE "Mary Jane" PERFORMER "illScarlett" FLAGS DCP INDEX 01 00:00:00FILE "illScarlett\EPdemic\07 - Pacino.wav" WAVE TRACK 07 AUDIO TITLE "Pacino" PERFORMER "illScarlett" FLAGS DCP INDEX 01 00:00:00FILE "illScarlett\EPdemic\08 - Rally.wav" WAVE TRACK 08 AUDIO TITLE "Rally" PERFORMER "illScarlett" FLAGS DCP INDEX 01 00:00:00




Трекер:  [ 27-Июн-2012 10:35 ]

  

Скачать .torrent

Размер .torrent файла 17 KB


Размер: 204 MB
Хэш (hash) релиза: 384d52af231c46674b8ff367e3e690dfa22b2d99

Еще никто не оставлял запись к записи скачать торрент illScarlett - EPdemic . Будь первым!

!Обратная связь