Top Gear: Season 7 (2005) | November 2009 | Alexandra Daddario

Скачать через торрент музыку IllScarlett - All Day With It - 2007, FLAC бесплатно без регистрации torrent

Статистика раздачи
Размер:  265 MB   |    Зарегистрирован:  6 лет 1 месяц   |    .torrent скачан:  74 раза   |   
Раздают:  1  
   
загрузка...
 
Автор Сообщение

Centner1

avatar Centner1




IllScarlett / All Day With It

Жанр: Reggae / Ska Punk
Страна-производитель диска: USA, Canada
Год издания: 2007
Страна: USA, Canada
Аудиокодек: FLAC (*.flac)
Тип рипа: tracks+.cue
Битрейт аудио: lossless
Продолжительность: 00:36:20
Наличие сканов в содержимом раздачи: нет
Треклист:
1. Who's Got It? – 3:33
2. Nothing Special – 3:28
3. Clearer Now – 2:55
4. Life of a Soldier – 3:55
5. Pacino - 2:59
6. NTF. – 3:46
7. The Fashion (Do or Die) – 4:13
8. Wake Up – 2:31
9. Paradise Burning – 4:00
10. Danse Macabre – 5:06

  
Exact Audio Copy V0.99 prebeta 4 from 23. January 2008

EAC extraction logfile from 20. November 2008, 17:08

illScarlett / All Day With It

Used drive : TSSTcorpCD/DVDW SH-S182D Adapter: 3 ID: 1

Read mode : SecureUtilize accurate stream : YesDefeat audio cache : YesMake use of C2 pointers : No

Read offset correction : 6Overread into Lead-In and Lead-Out : NoFill up missing offset samples with silence : YesDelete leading and trailing silent blocks : NoNull samples used in CRC calculations : YesUsed interface : Installed external ASPI interfaceGap handling : Appended to previous track

Used output format : User Defined EncoderSelected bitrate : 192 kBit/sQuality : HighAdd ID3 tag : NoCommand line compressor : C:\Program Files\Exact Audio Copy\flac.exeAdditional command line options : -8 -A tukey(0.25) -A gauss(0.1875) -b 4096 -V -T "artist=%a" -T "title=%t" -T "album=%g" -T "date=%y" -T "tracknumber=%n" -T "genre=%m" %s --sector-align

TOC of the extracted CD

Track | Start | Length | Start sector | End sector --------------------------------------------------------- 1 | 0:00.00 | 3:32.54 | 0 | 15953 2 | 3:32.54 | 3:28.24 | 15954 | 31577 3 | 7:01.03 | 2:54.55 | 31578 | 44682 4 | 9:55.58 | 3:55.33 | 44683 | 62340 5 | 13:51.16 | 2:58.56 | 62341 | 75746 6 | 16:49.72 | 3:45.73 | 75747 | 92694 7 | 20:35.70 | 4:13.06 | 92695 | 111675 8 | 24:49.01 | 2:31.30 | 111676 | 123030 9 | 27:20.31 | 3:59.70 | 123031 | 141025 10 | 31:20.26 | 5:05.68 | 141026 | 163968

Track 1

Filename C:\Documents and Settings\Only\Desktop\illScarlett - All Day With It [FLAC]\illScarlett - 01 - Who's Got It .wav

Pre-gap length 0:00:02.00

Peak level 100.0 % Track quality 100.0 % Test CRC 00B1C5B4 Copy CRC 00B1C5B4 Track not present in AccurateRip database Copy OK

Track 2

Filename C:\Documents and Settings\Only\Desktop\illScarlett - All Day With It [FLAC]\illScarlett - 02 - Nothing Special.wav

Peak level 100.0 % Track quality 100.0 % Test CRC 66A1B449 Copy CRC 66A1B449 Track not present in AccurateRip database Copy OK

Track 3

Filename C:\Documents and Settings\Only\Desktop\illScarlett - All Day With It [FLAC]\illScarlett - 03 - Clearer Now.wav

Peak level 100.0 % Track quality 100.0 % Test CRC B7B81BF1 Copy CRC B7B81BF1 Track not present in AccurateRip database Copy OK

Track 4

Filename C:\Documents and Settings\Only\Desktop\illScarlett - All Day With It [FLAC]\illScarlett - 04 - Life Of A Soldier.wav

Peak level 100.0 % Track quality 99.9 % Test CRC 2ECA03E2 Copy CRC 2ECA03E2 Track not present in AccurateRip database Copy OK

Track 5

Filename C:\Documents and Settings\Only\Desktop\illScarlett - All Day With It [FLAC]\illScarlett - 05 - Pacino.wav

Peak level 100.0 % Track quality 100.0 % Test CRC 58887D2A Copy CRC 58887D2A Track not present in AccurateRip database Copy OK

Track 6

Filename C:\Documents and Settings\Only\Desktop\illScarlett - All Day With It [FLAC]\illScarlett - 06 - NTF..wav

Peak level 100.0 % Track quality 100.0 % Test CRC 3A75F880 Copy CRC 3A75F880 Track not present in AccurateRip database Copy OK

Track 7

Filename C:\Documents and Settings\Only\Desktop\illScarlett - All Day With It [FLAC]\illScarlett - 07 - The Fashion {Do Or Die}.wav

Peak level 100.0 % Track quality 100.0 % Test CRC 21F95107 Copy CRC 21F95107 Track not present in AccurateRip database Copy OK

Track 8

Filename C:\Documents and Settings\Only\Desktop\illScarlett - All Day With It [FLAC]\illScarlett - 08 - Wake Up.wav

Peak level 100.0 % Track quality 99.9 % Test CRC B3DA6C4F Copy CRC B3DA6C4F Track not present in AccurateRip database Copy OK

Track 9

Filename C:\Documents and Settings\Only\Desktop\illScarlett - All Day With It [FLAC]\illScarlett - 09 - Paradise Burning.wav

Peak level 100.0 % Track quality 100.0 % Test CRC 544588F8 Copy CRC 544588F8 Track not present in AccurateRip database Copy OK

Track 10

Filename C:\Documents and Settings\Only\Desktop\illScarlett - All Day With It [FLAC]\illScarlett - 10 - Danse Macabre.wav

Peak level 100.0 % Track quality 100.0 % Test CRC A34263A6 Copy CRC A34263A6 Track not present in AccurateRip database Copy OK

None of the tracks are present in the AccurateRip database

No errors occurred

End of status report
  
REM GENRE "Ska Punk"REM DATE 2007REM DISCID 74088A0AREM COMMENT "ExactAudioCopy v0.99pb4"PERFORMER "illScarlett"TITLE "All Day With It"FILE "illScarlett - 01 - Who's Got It .wav" WAVE TRACK 01 AUDIO TITLE "Who's Got It?" PERFORMER "illScarlett" INDEX 01 00:00:00FILE "illScarlett - 02 - Nothing Special.wav" WAVE TRACK 02 AUDIO TITLE "Nothing Special" PERFORMER "illScarlett" INDEX 01 00:00:00FILE "illScarlett - 03 - Clearer Now.wav" WAVE TRACK 03 AUDIO TITLE "Clearer Now" PERFORMER "illScarlett" INDEX 01 00:00:00FILE "illScarlett - 04 - Life Of A Soldier.wav" WAVE TRACK 04 AUDIO TITLE "Life Of A Soldier" PERFORMER "illScarlett" INDEX 01 00:00:00FILE "illScarlett - 05 - Pacino.wav" WAVE TRACK 05 AUDIO TITLE "Pacino" PERFORMER "illScarlett" INDEX 01 00:00:00FILE "illScarlett - 06 - NTF..wav" WAVE TRACK 06 AUDIO TITLE "NTF." PERFORMER "illScarlett" INDEX 01 00:00:00FILE "illScarlett - 07 - The Fashion {Do Or Die}.wav" WAVE TRACK 07 AUDIO TITLE "The Fashion {Do Or Die}" PERFORMER "illScarlett" INDEX 01 00:00:00FILE "illScarlett - 08 - Wake Up.wav" WAVE TRACK 08 AUDIO TITLE "Wake Up" PERFORMER "illScarlett" INDEX 01 00:00:00FILE "illScarlett - 09 - Paradise Burning.wav" WAVE TRACK 09 AUDIO TITLE "Paradise Burning" PERFORMER "illScarlett" INDEX 01 00:00:00FILE "illScarlett - 10 - Danse Macabre.wav" WAVE TRACK 10 AUDIO TITLE "Danse Macabre" PERFORMER "illScarlett" INDEX 01 00:00:00




Трекер:  [ 27-Июн-2012 10:38 ]

  

Скачать .torrent

Размер .torrent файла 11 KB


Размер: 265 MB
Хэш (hash) релиза: bc0926e2a6849862d4c324336c5380b27b127e8e

Еще никто не оставлял запись к записи скачать торрент IllScarlett - All Day With It - 2007, FLAC . Будь первым!

!Обратная связь