Télécharger Part 2 | Westworld.S01E10.WEBRip.XviD-FUM[ettv] | pedro infante huapangos,

Скачать через торрент музыку illScarlett - 1UP! - 2009, FLAC бесплатно без регистрации torrent

Статистика раздачи
Размер:  290 MB   |    Зарегистрирован:  6 лет   |    .torrent скачан:  85 раз   |   
Раздают:  1  
   
загрузка...
 
Автор Сообщение

Centner1

avatar Centner1




illScarlett / 1UP!

Жанр: Reggae / Ska Punk
Страна-производитель диска: USA, Canada
Год издания: 2009
Страна: USA, Canada
Аудиокодек: FLAC (*.flac) (Log 80%)
Тип рипа: tracks+.cue
Битрейт аудио: lossless
Продолжительность: 00:43:42
Наличие сканов в содержимом раздачи: нет
Треклист:
1. Take It For Granted
2. Extra, Extra!
3. Funky Reputation
4. Get Famous (Tonight)
5. Milkshakes & Razorblades (Feat. Kardinal Offishall)
6. Freezing
7. Can't Sleep
8. Too Sure
9. Nothing Once Again
10. Sorry
11. Easy
12. 1up

  
X Lossless Decoder version 20090924 (109.9)

XLD extraction logfile from 2009-09-29 10:05:06 -0400

IllScarlett / 1UP

Used drive : HL-DT-ST DVDRW GS23N (revision SB00)

Use cdparanoia mode : YES (CDParanoia III 10.2 engine)Disable audio cache : OK for the drive with cache less than 2750KBMake use of C2 pointers : NORead offset correction : 667Max retry count : 100

TOC of the extracted CD Track | Start | Length | Start sector | End sector --------------------------------------------------------- 1 | 00:00:00 | 02:59:35 | 0 | 13459 2 | 02:59:35 | 03:09:21 | 13460 | 27655 3 | 06:08:56 | 02:56:44 | 27656 | 40899 4 | 09:05:25 | 02:35:16 | 40900 | 52540 5 | 11:40:41 | 04:23:09 | 52541 | 72274 6 | 16:03:50 | 05:34:06 | 72275 | 97330 7 | 21:37:56 | 04:23:67 | 97331 | 117122 8 | 26:01:48 | 04:08:37 | 117123 | 135759 9 | 30:10:10 | 03:33:25 | 135760 | 151759 10 | 33:43:35 | 03:46:26 | 151760 | 168735 11 | 37:29:61 | 03:13:51 | 168736 | 183261 12 | 40:43:37 | 03:03:43 | 183262 | 197029

Track 01 Filename : /Users/nickrogers/Music/PC/1UP!/01 - Take It For Granted.flac

CRC32 hash (test run) : 2E22BF20 CRC32 hash : 2E22BF20 CRC32 hash (skip zero) : 720B9C33 AccurateRip signature : 0A974219 ->Track not present in AccurateRip database. Statistics Read error : 0 Skipped (treated as error) : 0 Edge jitter error (maybe fixed) : 0 Atom jitter error (maybe fixed) : 0 Drift error (maybe fixed) : 0 Dropped bytes error (maybe fixed) : 0 Duplicated bytes error (maybe fixed) : 0 Inconsistency in error sectors : 0

Track 02 Filename : /Users/nickrogers/Music/PC/1UP!/02 - Extra, Extra!.flac

CRC32 hash (test run) : 5CB27E4F CRC32 hash : 5CB27E4F CRC32 hash (skip zero) : D05ADB25 AccurateRip signature : 7902D87B ->Track not present in AccurateRip database. Statistics Read error : 0 Skipped (treated as error) : 0 Edge jitter error (maybe fixed) : 0 Atom jitter error (maybe fixed) : 0 Drift error (maybe fixed) : 0 Dropped bytes error (maybe fixed) : 0 Duplicated bytes error (maybe fixed) : 0 Inconsistency in error sectors : 0

Track 03 Filename : /Users/nickrogers/Music/PC/1UP!/03 - Funky Rep..flac

CRC32 hash (test run) : BEB9FA75 CRC32 hash : BEB9FA75 CRC32 hash (skip zero) : FE1505E1 AccurateRip signature : D79A5008 ->Track not present in AccurateRip database. Statistics Read error : 0 Skipped (treated as error) : 0 Edge jitter error (maybe fixed) : 0 Atom jitter error (maybe fixed) : 0 Drift error (maybe fixed) : 0 Dropped bytes error (maybe fixed) : 0 Duplicated bytes error (maybe fixed) : 0 Inconsistency in error sectors : 0

Track 04 Filename : /Users/nickrogers/Music/PC/1UP!/04 - Get Famous (Tonight).flac

CRC32 hash (test run) : 4B01C067 CRC32 hash : 4B01C067 CRC32 hash (skip zero) : B3967C5D AccurateRip signature : 5247CDD7 ->Track not present in AccurateRip database. Statistics Read error : 0 Skipped (treated as error) : 0 Edge jitter error (maybe fixed) : 1 Atom jitter error (maybe fixed) : 1 Drift error (maybe fixed) : 0 Dropped bytes error (maybe fixed) : 0 Duplicated bytes error (maybe fixed) : 0 Inconsistency in error sectors : 0

Track 05 Filename : /Users/nickrogers/Music/PC/1UP!/05 - Milkshakes & Razorblades.flac

CRC32 hash (test run) : FA6E895F CRC32 hash : FA6E895F CRC32 hash (skip zero) : 27F5598C AccurateRip signature : FBCF7879 ->Track not present in AccurateRip database. Statistics Read error : 0 Skipped (treated as error) : 0 Edge jitter error (maybe fixed) : 0 Atom jitter error (maybe fixed) : 0 Drift error (maybe fixed) : 0 Dropped bytes error (maybe fixed) : 0 Duplicated bytes error (maybe fixed) : 0 Inconsistency in error sectors : 0

Track 06 Filename : /Users/nickrogers/Music/PC/1UP!/06 - Freezing.flac

CRC32 hash (test run) : 771C44B9 CRC32 hash : 771C44B9 CRC32 hash (skip zero) : B6ED1BEF AccurateRip signature : BFA6F4BB ->Track not present in AccurateRip database. Statistics Read error : 0 Skipped (treated as error) : 0 Edge jitter error (maybe fixed) : 0 Atom jitter error (maybe fixed) : 0 Drift error (maybe fixed) : 0 Dropped bytes error (maybe fixed) : 0 Duplicated bytes error (maybe fixed) : 0 Inconsistency in error sectors : 0

Track 07 Filename : /Users/nickrogers/Music/PC/1UP!/07 - Can't Sleep.flac

CRC32 hash (test run) : D71B7124 CRC32 hash : D71B7124 CRC32 hash (skip zero) : 4FD65514 AccurateRip signature : 07D1CE02 ->Track not present in AccurateRip database. Statistics Read error : 0 Skipped (treated as error) : 0 Edge jitter error (maybe fixed) : 0 Atom jitter error (maybe fixed) : 0 Drift error (maybe fixed) : 0 Dropped bytes error (maybe fixed) : 0 Duplicated bytes error (maybe fixed) : 0 Inconsistency in error sectors : 0

Track 08 Filename : /Users/nickrogers/Music/PC/1UP!/08 - Too Sure.flac

CRC32 hash (test run) : 5AEECB04 CRC32 hash : 5AEECB04 CRC32 hash (skip zero) : DBF4EB74 AccurateRip signature : CF7446CF ->Track not present in AccurateRip database. Statistics Read error : 0 Skipped (treated as error) : 0 Edge jitter error (maybe fixed) : 0 Atom jitter error (maybe fixed) : 0 Drift error (maybe fixed) : 0 Dropped bytes error (maybe fixed) : 0 Duplicated bytes error (maybe fixed) : 0 Inconsistency in error sectors : 0

Track 09 Filename : /Users/nickrogers/Music/PC/1UP!/09 - Nothing Once Again.flac

CRC32 hash (test run) : A53008E2 CRC32 hash : A53008E2 CRC32 hash (skip zero) : 0A04623B AccurateRip signature : 4658CF5E ->Track not present in AccurateRip database. Statistics Read error : 0 Skipped (treated as error) : 0 Edge jitter error (maybe fixed) : 0 Atom jitter error (maybe fixed) : 0 Drift error (maybe fixed) : 0 Dropped bytes error (maybe fixed) : 0 Duplicated bytes error (maybe fixed) : 0 Inconsistency in error sectors : 0

Track 10 Filename : /Users/nickrogers/Music/PC/1UP!/10 - Sorry.flac

CRC32 hash (test run) : 924322A7 CRC32 hash : 924322A7 CRC32 hash (skip zero) : 0AF61D6C AccurateRip signature : 92D350B7 ->Track not present in AccurateRip database. Statistics Read error : 0 Skipped (treated as error) : 0 Edge jitter error (maybe fixed) : 0 Atom jitter error (maybe fixed) : 0 Drift error (maybe fixed) : 0 Dropped bytes error (maybe fixed) : 0 Duplicated bytes error (maybe fixed) : 0 Inconsistency in error sectors : 0

Track 11 Filename : /Users/nickrogers/Music/PC/1UP!/11 - Easy.flac

CRC32 hash (test run) : A3513129 CRC32 hash : A3513129 CRC32 hash (skip zero) : 84FCB3DA AccurateRip signature : AED19A96 ->Track not present in AccurateRip database. Statistics Read error : 0 Skipped (treated as error) : 0 Edge jitter error (maybe fixed) : 0 Atom jitter error (maybe fixed) : 0 Drift error (maybe fixed) : 0 Dropped bytes error (maybe fixed) : 0 Duplicated bytes error (maybe fixed) : 0 Inconsistency in error sectors : 0

Track 12 Filename : /Users/nickrogers/Music/PC/1UP!/12 - 1UP.flac

CRC32 hash (test run) : 6483BB49 CRC32 hash : 6483BB49 CRC32 hash (skip zero) : 7BEAA440 AccurateRip signature : 9913D1A2 ->Track not present in AccurateRip database. Statistics Read error : 0 Skipped (treated as error) : 0 Edge jitter error (maybe fixed) : 0 Atom jitter error (maybe fixed) : 0 Drift error (maybe fixed) : 0 Dropped bytes error (maybe fixed) : 0 Duplicated bytes error (maybe fixed) : 0 Inconsistency in error sectors : 0

No errors occurred

End of status report
  
TITLE "1UP"PERFORMER "IllScarlett"REM GENRE "Pop"REM DATE 2009FILE "01 - Take It For Granted.wav" WAVE TRACK 01 AUDIO TITLE "Take It For Granted" ISRC CAV160900054 INDEX 01 00:00:00FILE "02 - Extra, Extra!.wav" WAVE TRACK 02 AUDIO TITLE "Extra, Extra!" ISRC CAV160900031 INDEX 01 00:00:00FILE "03 - Funky Rep..wav" WAVE TRACK 03 AUDIO TITLE "Funky Rep." ISRC CAV160900045 INDEX 01 00:00:00FILE "04 - Get Famous (Tonight).wav" WAVE TRACK 04 AUDIO TITLE "Get Famous (Tonight)" ISRC CAV160900032 INDEX 01 00:00:00FILE "05 - Milkshakes & Razorblades.wav" WAVE TRACK 05 AUDIO TITLE "Milkshakes & Razorblades" ISRC CAV160900046 INDEX 01 00:00:00FILE "06 - Freezing.wav" WAVE TRACK 06 AUDIO TITLE "Freezing" ISRC CAV160900047 INDEX 01 00:00:00FILE "07 - Can't Sleep.wav" WAVE TRACK 07 AUDIO TITLE "Can't Sleep" ISRC CAV160900048 INDEX 01 00:00:00FILE "08 - Too Sure.wav" WAVE TRACK 08 AUDIO TITLE "Too Sure" ISRC CAV160900044 INDEX 01 00:00:00FILE "09 - Nothing Once Again.wav" WAVE TRACK 09 AUDIO TITLE "Nothing Once Again" ISRC CAV160900049 INDEX 01 00:00:00 TRACK 10 AUDIO TITLE "Sorry" ISRC CAV160900051 INDEX 00 03:32:22FILE "10 - Sorry.wav" WAVE INDEX 01 00:00:00 TRACK 11 AUDIO TITLE "Easy" ISRC CAV160900052 INDEX 00 03:44:31FILE "11 - Easy.wav" WAVE INDEX 01 00:00:00FILE "12 - 1UP.wav" WAVE TRACK 12 AUDIO TITLE "1UP" ISRC CAV160900053 INDEX 01 00:00:00




Трекер:  [ 27-Июн-2012 10:42 ]

  

Скачать .torrent

Размер .torrent файла 12 KB


Размер: 290 MB
Хэш (hash) релиза: 00cceeab8483ee407681cf64c4473568b3456404

Еще никто не оставлял запись к записи скачать торрент illScarlett - 1UP! - 2009, FLAC . Будь первым!

!Обратная связь