I Am Frankie | Boston Public | Le caravage

Скачать через торрент музыку VA - The Duran Duran Tribute Album - 1997, FLAC бесплатно без регистрации torrent

Статистика раздачи
Размер:  415 MB   |    Зарегистрирован:  6 лет   |    .torrent скачан:  67 раз   |   
Раздают:  1  
   
загрузка...
 
Автор Сообщение

_N_

avatar _N_


The Duran Duran Tribute Album

Жанр: Punk Rock, Ska-Punk
Страна-производитель диска: USA
Год издания: 1997
Издатель (лейбл): Mojo records
Номер по каталогу: UD-53029
Страна: ---
Аудиокодек: FLAC (*.flac)
Тип рипа: image+.cue
Битрейт аудио: lossless
Продолжительность: 57:35
Источник (релизер): CD
Наличие сканов в содержимом раздачи: да
Треклист:
01 Rio - Goldfinger
02 Hold Back The Rain - Buck-O-Nine
03 Planet Earth - Home Grown
04 The Chauffer - Deftones
05 Come Undone - Wise Crack
06 Hungry Like the Wolf - Reel Big Fish
07 The Reflex - Less Than Jake
08 Ordinary World - Riverfenix
09 A View to a Kill - GOB
10 Girls on Film - Bjorn Again
11 The Seventh Stranger - The Wrens
12 Save a Prayer - Eve's Plum
13 New Religion - Jimmy Eat World
14 Is There Something I Should Know - Mr. T Expierence
15 Girls on Film - Wesley Willis Fiasco
  
Exact Audio Copy V1.0 beta 2 from 29. April 2011

Отчёт EAC об извлечении, выполненном 17. июня 2012, 0:32

Various / The Duran Duran Tribute Album

Дисковод: Optiarc DVD RW AD-7260S Adapter: 0 ID: 1

Режим чтения : ДостоверностьИспользование точного потока : ДаОтключение кэша аудио : ДаИспользование указателей C2 : Нет

Коррекция смещения при чтении : 48Способность читать области Lead-in и Lead-out : НетЗаполнение пропущенных сэмплов тишиной : ДаУдаление блоков с тишиной в начале и конце : НетПри вычислениях CRC использовались нулевые сэмплы : ДаИнтерфейс : Встроенный Win32-интерфейс для Win NT/2000

Выходной формат : Пользовательский кодировщикВыбранный битрейт : 128 kBit/sКачество : ВысокийДобавление ID3-тега : НетУтилита сжатия : C:\Program Files\Exact Audio Copy\FLAC\FLAC.EXEДополнительные параметры : -6 -V -T "ARTIST=%artist%" -T "TITLE=%title%" -T "ALBUM=%albumtitle%" -T "DATE=%year%" -T "TRACKNUMBER=%tracknr%" -T "GENRE=%genre%" -T "COMMENT=%comment%" -T "BAND=%albuminterpret%" -T "COMPOSER=%composer%" %haslyrics%--tag-from-

TOC извлечённого CD

Трек | Старт | Длительность | Начальный сектор | Конечный сектор --------------------------------------------------------------------- 1 | 0:00.00 | 2:59.60 | 0 | 13484 2 | 2:59.60 | 3:08.47 | 13485 | 27631 3 | 6:08.32 | 3:38.08 | 27632 | 43989 4 | 9:46.40 | 5:23.05 | 43990 | 68219 5 | 15:09.45 | 4:03.45 | 68220 | 86489 6 | 19:13.15 | 3:39.22 | 86490 | 102936 7 | 22:52.37 | 3:14.40 | 102937 | 117526 8 | 26:07.02 | 4:06.20 | 117527 | 135996 9 | 30:13.22 | 1:26.60 | 135997 | 142506 10 | 31:40.07 | 3:51.63 | 142507 | 159894 11 | 35:31.70 | 5:07.30 | 159895 | 182949 12 | 40:39.25 | 4:51.35 | 182950 | 204809 13 | 45:30.60 | 4:48.37 | 204810 | 226446 14 | 50:19.22 | 3:39.00 | 226447 | 242871 15 | 53:58.22 | 3:36.58 | 242872 | 259129

Характеристики диапазона извлечения и сообщения об ошибках

Выбранный диапазон

Имя файла D:\FLAC\Various - The Duran Duran Tribute Album - 1997.wav

Пиковый уровень 99.5 % Скорость извлечения 4.0 X Качество диапазона 100.0 % CRC теста 5ED5D0C2 CRC копии 5ED5D0C2 Копирование... OK

Ошибок не произошло

Конец отчёта

==== Контрольная сумма отчёта DD3CED19F948192A87EB7C4345FAFD75D102054182F80EE06D8E6B97B8F26883 ====


Трекер:  [ 27-Июн-2012 11:04 ]

  

Скачать .torrent

Размер .torrent файла 17 KB


Размер: 415 MB
Хэш (hash) релиза: 2eda55ff65bbc59b0c7559504b7832501df97a8f

Еще никто не оставлял запись к записи скачать торрент VA - The Duran Duran Tribute Album - 1997, FLAC . Будь первым!

!Обратная связь