Hell's Kitchen | Book Club | The King Of Food

Скачать через торрент музыку Sly Dunbar - Sly, Wicked And Slick - Extra Version - 1991, FLAC бесплатно без регистрации torrent

Статистика раздачи
Размер:  411 MB   |    Зарегистрирован:  6 лет   |    .torrent скачан:  56 раз   |   
Раздают:  1  
   
загрузка...
 
Автор Сообщение

_N_

avatar _N_


Sly Dunbar / Sly, Wicked And Slick - Extra Version

Жанр: dub
Страна-производитель диска: europe
Год издания: 1991
Издатель (лейбл): Front Line Records OR Virgin
Номер по каталогу: CDFL 9018 OR 0777 7 86874 2 9
Страна: jamaica
Аудиокодек: FLAC (*.flac)
Тип рипа: tracks+.cue
Битрейт аудио: lossless
Продолжительность: 66m
Источник (релизер): wata
Наличие сканов в содержимом раздачи: нет
Треклист:

1 Rasta Fiesta 4:11
2 Sesame 3:16
3 Bluesy Baby II 5:12
4 Senegal Market Place 3:32
5 Mr Music 4:26
6 Queen Of The Minstrels 4:38
7 Dirty Harry 4:13
8 Oriental Taxi 4:12
9 Cocaine Cocaine 4:48
10 Mr Bassie 3:24
11 Dope Addict 5:38
12 Sun Is Shining 3:02
13 A Who Say 4:26
14 Nigger Whitie 3:47
15 Dance And Shake Your Tambourine 4:18
16 Top Rank 2:45

Трип-хоповый, умиротворяющий эйсид джазовый даб.

Credits▼
Backing Vocals – Althia & Donna* (tracks: 10, 13, 15), Beres Hammond (tracks: 1 to 8), Black Uhuru (tracks: 12), Bobby Anney* (tracks: 14), Bobby Thomas (10) (tracks: 9, 11), Calman Scott (tracks: 1 to 8), Errol Francis (tracks: 9, 11), Stennet (tracks: 14), Tamlins, The (tracks: 1 to 8)
Bass – Ranchie McLean* (tracks: 9 to 13, 15, 16), Lloyd Parks (tracks: 14), Robert Shakespeare* (tracks: 1 to 8)
Bass [Solo] – Ranchie McLean* (tracks: 6), Mikey Chung (tracks: 1)
Clavinet – Robert Lyn*
Compiled By – Steve Pritchard, Trevor Herman
Drums – Sly Dunbar
Electric Piano – Keith Stirling*
Electric Piano, Guitar [Rhythm], Synthesizer – Mikey Chung (tracks: 1 to 8)
Engineer – Bunny Tom Tom (tracks: 1 to 8), Maxi* (tracks: 1 to 8)
Engineer [Sound] – Jeffrey Chung* (tracks: 1 to 8)
Guitar [Lead] – Rad 'Dougie' Bryan* (tracks: 9 to 16)
Guitar [Rhythm] – Rad Bryan* (tracks: 1 to 8), Robert Shakespeare* (tracks: 9 to 16)
Guitar, Other [Talk Box] – Earl 'Chinna' Smith* (tracks: 9 to 16)
Marimba, Percussion [Gato Drum, Synare 3] – Sly Dunbar (tracks: 1 to 8)
Mastered By – Frank Arkwright
Melodica – Keith Stirling* (tracks: 1 to 8)
Organ – Bernard Harvey*
Percussion – Barnabas, Scully*, Sticky*
Piano, Harmonica – Bernard Harvey* (tracks: 9 to 16)
Piano, Organ – Ansell Collins*, Tarzan Nelson (tracks: 9 to 16)
Producer – Jeffrey Chung* (tracks: 1 to 8), Lowell 'Sly' Dunbar* (tracks: 9 to 16), Sly Dunbar (tracks: 1 to 8)
Saxophone [Alto & Tenor] – Dean Fraser (tracks: 1, 3, 5, 6)
Saxophone [Alto] – Deadly Headly* (tracks: 9 to 11, 13, 15), Herman Marquis
Saxophone [Tenor] – Tommy McCook (tracks: 7, 9 to 16)
Synthesizer – Robert Lyn* (tracks: 9 to 16)
Trombone – Vin Gordon
Trumpet – Brickenridge* (tracks: 1 to 8)
Notes▼
Compiled from "Sly, Wicked And Slick" (tracks 1 to 8) and "Simple Sly Man" (tracks 9 to 16).
  
Exact Audio Copy V1.0 beta 1 from 15. November 2010

EAC extraction logfile from 14. April 2011, 2:57

Sly Dunbar / Sly, Wicked and Slick - Extra Version

Used drive : SlimtypeDVD A DS8A5SH Adapter: 0 ID: 1

Read mode : SecureUtilize accurate stream : YesDefeat audio cache : YesMake use of C2 pointers : No

Read offset correction : 6Overread into Lead-In and Lead-Out : NoFill up missing offset samples with silence : YesDelete leading and trailing silent blocks : NoNull samples used in CRC calculations : YesUsed interface : Native Win32 interface for Win NT & 2000Gap handling : Appended to previous track

Used output format : User Defined EncoderSelected bitrate : 128 kBit/sQuality : HighAdd ID3 tag : NoCommand line compressor : C:\Program Files (x86)\Exact Audio Copy\Flac\flac.exeAdditional command line options : -V -8 -T "artist=%a" -T "title=%t" -T "album=%g" -T "date=%y" -T "tracknumber=%n" -T "genre=%m" %s

TOC of the extracted CD

Track | Start | Length | Start sector | End sector --------------------------------------------------------- 1 | 0:00.00 | 4:12.65 | 0 | 18964 2 | 4:12.65 | 3:18.62 | 18965 | 33876 3 | 7:31.52 | 5:14.25 | 33877 | 57451 4 | 12:46.02 | 3:34.50 | 57452 | 73551 5 | 16:20.52 | 4:28.38 | 73552 | 93689 6 | 20:49.15 | 4:40.25 | 93690 | 114714 7 | 25:29.40 | 4:15.62 | 114715 | 133901 8 | 29:45.27 | 4:14.08 | 133902 | 152959 9 | 33:59.35 | 4:50.50 | 152960 | 174759 10 | 38:50.10 | 3:26.05 | 174760 | 190214 11 | 42:16.15 | 5:40.02 | 190215 | 215716 12 | 47:56.17 | 3:04.70 | 215717 | 229586 13 | 51:01.12 | 4:55.40 | 229587 | 251751 14 | 55:56.52 | 3:49.05 | 251752 | 268931 15 | 59:45.57 | 4:20.25 | 268932 | 288456 16 | 64:06.07 | 2:45.65 | 288457 | 300896

Track 1

Filename C:\EACrips\Sly Dunbar - Sly, Wicked and Slick - Extra Version - 1991 - [FLAC]\01 - Rasta Fiesta.wav

Pre-gap length 0:00:02.00

Peak level 94.3 % Extraction speed 1.1 X Track quality 100.0 % Test CRC ED9AF851 Copy CRC ED9AF851 Track not present in AccurateRip database Copy OK

Track 2

Filename C:\EACrips\Sly Dunbar - Sly, Wicked and Slick - Extra Version - 1991 - [FLAC]\02 - Sesame.wav

Pre-gap length 0:00:01.33

Peak level 82.0 % Extraction speed 1.2 X Track quality 100.0 % Test CRC 86814A06 Copy CRC 86814A06 Track not present in AccurateRip database Copy OK

Track 3

Filename C:\EACrips\Sly Dunbar - Sly, Wicked and Slick - Extra Version - 1991 - [FLAC]\03 - Bluesy Baby II.wav

Pre-gap length 0:00:01.06

Peak level 83.9 % Extraction speed 1.4 X Track quality 100.0 % Test CRC 71EB7794 Copy CRC 71EB7794 Track not present in AccurateRip database Copy OK

Track 4

Filename C:\EACrips\Sly Dunbar - Sly, Wicked and Slick - Extra Version - 1991 - [FLAC]\04 - Senegal Market Place.wav

Pre-gap length 0:00:01.56

Peak level 82.0 % Extraction speed 1.4 X Track quality 100.0 % Test CRC 9F91D122 Copy CRC 9F91D122 Track not present in AccurateRip database Copy OK

Track 5

Filename C:\EACrips\Sly Dunbar - Sly, Wicked and Slick - Extra Version - 1991 - [FLAC]\05 - Mr Music.wav

Peak level 82.6 % Extraction speed 1.6 X Track quality 100.0 % Test CRC 21AAC201 Copy CRC 21AAC201 Track not present in AccurateRip database Copy OK

Track 6

Filename C:\EACrips\Sly Dunbar - Sly, Wicked and Slick - Extra Version - 1991 - [FLAC]\06 - Queen of the Minstrels.wav

Pre-gap length 0:00:01.44

Peak level 82.6 % Extraction speed 1.7 X Track quality 100.0 % Test CRC 256C8006 Copy CRC 256C8006 Track not present in AccurateRip database Copy OK

Track 7

Filename C:\EACrips\Sly Dunbar - Sly, Wicked and Slick - Extra Version - 1991 - [FLAC]\07 - Dirty Harry.wav

Pre-gap length 0:00:01.24

Peak level 86.4 % Extraction speed 1.8 X Track quality 100.0 % Test CRC 5D0EF54A Copy CRC 5D0EF54A Track not present in AccurateRip database Copy OK

Track 8

Filename C:\EACrips\Sly Dunbar - Sly, Wicked and Slick - Extra Version - 1991 - [FLAC]\08 - Oriental Taxi.wav

Pre-gap length 0:00:01.69

Peak level 86.4 % Extraction speed 1.8 X Track quality 100.0 % Test CRC 07E325A4 Copy CRC 07E325A4 Track not present in AccurateRip database Copy OK

Track 9

Filename C:\EACrips\Sly Dunbar - Sly, Wicked and Slick - Extra Version - 1991 - [FLAC]\09 - Cocaine Cocaine.wav

Pre-gap length 0:00:01.84

Peak level 97.1 % Extraction speed 2.0 X Track quality 100.0 % Test CRC 6E807063 Copy CRC 6E807063 Track not present in AccurateRip database Copy OK

Track 10

Filename C:\EACrips\Sly Dunbar - Sly, Wicked and Slick - Extra Version - 1991 - [FLAC]\10 - Mr Bassie.wav

Pre-gap length 0:00:02.30

Peak level 99.7 % Extraction speed 1.9 X Track quality 100.0 % Test CRC 0BECA3D7 Copy CRC 0BECA3D7 Track not present in AccurateRip database Copy OK

Track 11

Filename C:\EACrips\Sly Dunbar - Sly, Wicked and Slick - Extra Version - 1991 - [FLAC]\11 - Dope Addict.wav

Pre-gap length 0:00:01.20

Peak level 98.9 % Extraction speed 1.9 X Track quality 99.9 % Test CRC 08773D79 Copy CRC 08773D79 Track not present in AccurateRip database Copy OK

Track 12

Filename C:\EACrips\Sly Dunbar - Sly, Wicked and Slick - Extra Version - 1991 - [FLAC]\12 - Sun is Shining.wav

Pre-gap length 0:00:01.06

Peak level 93.4 % Extraction speed 1.7 X Track quality 99.9 % Test CRC B4F35766 Copy CRC B4F35766 Track not present in AccurateRip database Copy OK

Track 13

Filename C:\EACrips\Sly Dunbar - Sly, Wicked and Slick - Extra Version - 1991 - [FLAC]\13 - A Who Say.wav

Peak level 93.0 % Extraction speed 2.0 X Track quality 99.9 % Test CRC 656B257C Copy CRC 656B257C Track not present in AccurateRip database Copy OK

Track 14

Filename C:\EACrips\Sly Dunbar - Sly, Wicked and Slick - Extra Version - 1991 - [FLAC]\14 - Nigger Whitie.wav

Peak level 98.1 % Extraction speed 2.2 X Track quality 100.0 % Test CRC FD3DF3A6 Copy CRC FD3DF3A6 Track not present in AccurateRip database Copy OK

Track 15

Filename C:\EACrips\Sly Dunbar - Sly, Wicked and Slick - Extra Version - 1991 - [FLAC]\15 - Dance and Shake your Tambourine.wav

Peak level 100.0 % Extraction speed 2.1 X Track quality 99.9 % Test CRC 16F33997 Copy CRC 16F33997 Track not present in AccurateRip database Copy OK

Track 16

Filename C:\EACrips\Sly Dunbar - Sly, Wicked and Slick - Extra Version - 1991 - [FLAC]\16 - Top Rank.wav

Pre-gap length 0:00:01.86

Peak level 85.0 % Extraction speed 2.2 X Track quality 100.0 % Test CRC 608E1FEC Copy CRC 608E1FEC Track not present in AccurateRip database Copy OK

None of the tracks are present in the AccurateRip database

No errors occurred

End of status report
  
REM GENRE ReggaeREM DATE 1991REM DISCID F40FAB10REM COMMENT "ExactAudioCopy v1.0b1"PERFORMER "Sly Dunbar"TITLE "Sly, Wicked and Slick - Extra Version"FILE "\01 - Rasta Fiesta.wav" WAVE TRACK 01 AUDIO TITLE "Rasta Fiesta" PERFORMER "Sly Dunbar" INDEX 01 00:00:00 TRACK 02 AUDIO TITLE "Sesame" PERFORMER "Sly Dunbar" INDEX 00 04:11:40FILE "\02 - Sesame.wav" WAVE INDEX 01 00:00:00 TRACK 03 AUDIO TITLE "Bluesy Baby II" PERFORMER "Sly Dunbar" INDEX 00 03:17:57FILE "\03 - Bluesy Baby II.wav" WAVE INDEX 01 00:00:00 TRACK 04 AUDIO TITLE "Senegal Market Place" PERFORMER "Sly Dunbar" INDEX 00 05:12:58FILE "\04 - Senegal Market Place.wav" WAVE INDEX 01 00:00:00FILE "\05 - Mr Music.wav" WAVE TRACK 05 AUDIO TITLE "Mr Music" PERFORMER "Sly Dunbar" INDEX 01 00:00:00 TRACK 06 AUDIO TITLE "Queen of the Minstrels" PERFORMER "Sly Dunbar" INDEX 00 04:27:05FILE "\06 - Queen of the Minstrels.wav" WAVE INDEX 01 00:00:00 TRACK 07 AUDIO TITLE "Dirty Harry" PERFORMER "Sly Dunbar" INDEX 00 04:39:07FILE "\07 - Dirty Harry.wav" WAVE INDEX 01 00:00:00 TRACK 08 AUDIO TITLE "Oriental Taxi" PERFORMER "Sly Dunbar" INDEX 00 04:14:10FILE "\08 - Oriental Taxi.wav" WAVE INDEX 01 00:00:00 TRACK 09 AUDIO TITLE "Cocaine Cocaine" PERFORMER "Sly Dunbar" INDEX 00 04:12:20FILE "\09 - Cocaine Cocaine.wav" WAVE INDEX 01 00:00:00 TRACK 10 AUDIO TITLE "Mr Bassie" PERFORMER "Sly Dunbar" INDEX 00 04:48:27FILE "\10 - Mr Bassie.wav" WAVE INDEX 01 00:00:00 TRACK 11 AUDIO TITLE "Dope Addict" PERFORMER "Sly Dunbar" INDEX 00 03:24:65FILE "\11 - Dope Addict.wav" WAVE INDEX 01 00:00:00 TRACK 12 AUDIO TITLE "Sun is Shining" PERFORMER "Sly Dunbar" INDEX 00 05:38:72FILE "\12 - Sun is Shining.wav" WAVE INDEX 01 00:00:00FILE "\13 - A Who Say.wav" WAVE TRACK 13 AUDIO TITLE "A Who Say" PERFORMER "Sly Dunbar" INDEX 01 00:00:00FILE "\14 - Nigger Whitie.wav" WAVE TRACK 14 AUDIO TITLE "Nigger Whitie" PERFORMER "Sly Dunbar" INDEX 01 00:00:00FILE "\15 - Dance and Shake your Tambourine.wav" WAVE TRACK 15 AUDIO TITLE "Dance and Shake your Tambourine" PERFORMER "Sly Dunbar" INDEX 01 00:00:00 TRACK 16 AUDIO TITLE "Top Rank" PERFORMER "Sly Dunbar" INDEX 00 04:18:35FILE "\16 - Top Rank.wav" WAVE INDEX 01 00:00:00


Трекер:  [ 27-Июн-2012 11:05 ]

  

Скачать .torrent

Размер .torrent файла 17 KB


Размер: 411 MB
Хэш (hash) релиза: c34f9f47cd02bb3e23a74ec5013f4bb0a5279081

Еще никто не оставлял запись к записи скачать торрент Sly Dunbar - Sly, Wicked And Slick - Extra Version - 1991, FLAC . Будь первым!

!Обратная связь