La Vida En Piezas HDTV | Chapter 69 | NetBerserker

Скачать через торрент музыку Sly & Robbie - Blackwood Dub - 2012, FLAC бесплатно без регистрации torrent

Статистика раздачи
Размер:  250 MB   |    Зарегистрирован:  6 лет 1 месяц   |    .torrent скачан:  63 раза   |   
Раздают:  1  
   
загрузка...
 
Автор Сообщение

_N_

avatar _N_


Sly & Robbie / Blackwood Dub

Жанр: dub
Страна-производитель диска: germany
Год издания: 2012
Издатель (лейбл): Groove Attack Productions
Номер по каталогу: GAP113-2
Страна: jamaica
Аудиокодек: FLAC (*.flac)
Тип рипа: tracks+.cue
Битрейт аудио: lossless
Продолжительность: 60m
Источник (релизер): wata
Наличие сканов в содержимом раздачи: нет
Треклист:
1 Dirty Flirty
2 Shabby Attack
3 Burru Saturday
4 Communication Breakdown
5 Frenchman Code
6 Riding East
7 Ruff House
8 Smoothie
9 The Bomber
10 The Great Escape

Bass, Guitar – Robert Shakespeare*
Drums, Percussion, Electronic Drums [Syn Drums] – Sly Dunbar
Guitar – Dalton Brownie, Daryl Thompson*, Mikey Mao Chung*, Dougie Bryan*
Keyboards – Hansel Collins*, Robbie Lyn
Percussion – Skully*, Sticky Thompson*
  
Exact Audio Copy V1.0 beta 3 from 29. August 2011

EAC extraction logfile from 1. June 2012, 17:33

Sly & Robbie / Blackwood Dub

Used drive : ATAPI DVD A DH16AASH Adapter: 1 ID: 1

Read mode : SecureUtilize accurate stream : YesDefeat audio cache : YesMake use of C2 pointers : No

Read offset correction : 6Overread into Lead-In and Lead-Out : NoFill up missing offset samples with silence : YesDelete leading and trailing silent blocks : NoNull samples used in CRC calculations : YesUsed interface : Native Win32 interface for Win NT & 2000Gap handling : Appended to previous track

Used output format : User Defined EncoderSelected bitrate : 1024 kBit/sQuality : HighAdd ID3 tag : NoCommand line compressor : C:\Program Files (x86)\FLAC\flac.exeAdditional command line options : -8 -V -T "ARTIST=%artist%" -T "TITLE=%title%" -T "ALBUM=%albumtitle%" -T "DATE=%year%" -T "TRACKNUMBER=%tracknr%" -T "GENRE=%genre%" -T "PERFORMER=%albuminterpret%" -T "COMPOSER=%composer%" %haslyrics%--tag-from-file=LYRICS="%lyricsfile%"%haslyrics% -T "ALBUMARTIST=%albumartist%" -T "ALBUM ARTIST=%albumartist%" -T "DISCNUMBER=%cdnumber%" -T "TOTALDISCS=%totalcds%" -T "TOTALTRACKS=%numtracks%" -T "COMMENT=EAC V1.0 beta 2, Secure Mode, Test & Copy, AccurateRip, FLAC -8" %source% -o %dest%

TOC of the extracted CD

Track | Start | Length | Start sector | End sector --------------------------------------------------------- 1 | 0:00.00 | 4:03.71 | 0 | 18295 2 | 4:03.71 | 4:17.52 | 18296 | 37622 3 | 8:21.48 | 4:05.17 | 37623 | 56014 4 | 12:26.65 | 3:35.62 | 56015 | 72201 5 | 16:02.52 | 4:28.17 | 72202 | 92318 6 | 20:30.69 | 4:12.06 | 92319 | 111224 7 | 24:43.00 | 3:44.73 | 111225 | 128097 8 | 28:27.73 | 4:13.17 | 128098 | 147089 9 | 32:41.15 | 4:30.62 | 147090 | 167401 10 | 37:12.02 | 4:16.43 | 167402 | 186644

Track 1

Filename F:\Converted Flac\01 Dirty Flirty.wav

Pre-gap length 0:00:02.00

Peak level 86.1 % Extraction speed 3.1 X Track quality 100.0 % Test CRC 1301CB91 Copy CRC 1301CB91 Accurately ripped (confidence 1) [3C1370E0] (AR v2) Copy OK

Track 2

Filename F:\Converted Flac\02 Shabby Attack.wav

Peak level 96.6 % Extraction speed 3.5 X Track quality 100.0 % Test CRC DCD61A2F Copy CRC DCD61A2F Accurately ripped (confidence 1) [37A4149A] (AR v2) Copy OK

Track 3

Filename F:\Converted Flac\03 Burru Saterday.wav

Peak level 86.1 % Extraction speed 3.8 X Track quality 100.0 % Test CRC 4231C703 Copy CRC 4231C703 Accurately ripped (confidence 1) [BC6476C4] (AR v2) Copy OK

Track 4

Filename F:\Converted Flac\04 Communication Breakdown.wav

Peak level 96.6 % Extraction speed 3.9 X Track quality 100.0 % Test CRC 7B3C3967 Copy CRC 7B3C3967 Accurately ripped (confidence 1) [1F058EB8] (AR v2) Copy OK

Track 5

Filename F:\Converted Flac\05 Frenchman Code.wav

Peak level 86.1 % Extraction speed 3.6 X Track quality 99.9 % Test CRC 1CD85292 Copy CRC 1CD85292 Accurately ripped (confidence 1) [C620E8F1] (AR v2) Copy OK

Track 6

Filename F:\Converted Flac\06 Riding East.wav

Pre-gap length 0:00:01.00

Peak level 96.6 % Extraction speed 4.5 X Track quality 100.0 % Test CRC 647B80FA Copy CRC 647B80FA Accurately ripped (confidence 1) [0E06B745] (AR v2) Copy OK

Track 7

Filename F:\Converted Flac\07 Ruff House.wav

Peak level 96.6 % Extraction speed 4.6 X Track quality 100.0 % Test CRC 8B0386F7 Copy CRC 8B0386F7 Accurately ripped (confidence 1) [F7431DDD] (AR v2) Copy OK

Track 8

Filename F:\Converted Flac\08 Smoothie.wav

Peak level 86.1 % Extraction speed 4.8 X Track quality 100.0 % Test CRC C94B1326 Copy CRC C94B1326 Accurately ripped (confidence 1) [7196BADE] (AR v2) Copy OK

Track 9

Filename F:\Converted Flac\09 The Bomber.wav

Peak level 86.1 % Extraction speed 4.7 X Track quality 100.0 % Test CRC 2C5093B5 Copy CRC 2C5093B5 Accurately ripped (confidence 1) [74FF7961] (AR v2) Copy OK

Track 10

Filename F:\Converted Flac\10 The Great Escape.wav

Peak level 96.6 % Extraction speed 5.2 X Track quality 100.0 % Test CRC 53B9B5F8 Copy CRC 53B9B5F8 Accurately ripped (confidence 1) [84E6646B] (AR v2) Copy OK

All tracks accurately ripped

No errors occurred

End of status report

==== Log checksum A72F839C344D2C56245F26FAAB474600E1CD07BAAC74BC66899F06867BA6728A ====
  
REM GENRE ReggaeREM DATE 2012REM DISCID 8409B80AREM COMMENT "ExactAudioCopy v1.0b3"PERFORMER "Sly & Robbie"TITLE "Blackwood Dub"FILE "01 Dirty Flirty.wav" WAVE TRACK 01 AUDIO TITLE "Dirty Flirty" PERFORMER "Sly & Robbie" ISRC DEQ121114279 INDEX 01 00:00:00FILE "02 Shabby Attack.wav" WAVE TRACK 02 AUDIO TITLE "Shabby Attack" PERFORMER "Sly & Robbie" ISRC DEQ121114280 INDEX 01 00:00:00FILE "03 Burru Saterday.wav" WAVE TRACK 03 AUDIO TITLE "Burru Saterday" PERFORMER "Sly & Robbie" ISRC DEQ121114281 INDEX 01 00:00:00FILE "04 Communication Breakdown.wav" WAVE TRACK 04 AUDIO TITLE "Communication Breakdown" PERFORMER "Sly & Robbie" ISRC DEQ121114282 INDEX 01 00:00:00FILE "05 Frenchman Code.wav" WAVE TRACK 05 AUDIO TITLE "Frenchman Code" PERFORMER "Sly & Robbie" ISRC DEQ121114283 INDEX 01 00:00:00 TRACK 06 AUDIO TITLE "Riding East" PERFORMER "Sly & Robbie" ISRC DEQ121114284 INDEX 00 04:27:17FILE "06 Riding East.wav" WAVE INDEX 01 00:00:00FILE "07 Ruff House.wav" WAVE TRACK 07 AUDIO TITLE "Ruff House" PERFORMER "Sly & Robbie" ISRC DEQ121114285 INDEX 01 00:00:00FILE "08 Smoothie.wav" WAVE TRACK 08 AUDIO TITLE "Smoothie" PERFORMER "Sly & Robbie" ISRC DEQ121114286 INDEX 01 00:00:00FILE "09 The Bomber.wav" WAVE TRACK 09 AUDIO TITLE "The Bomber" PERFORMER "Sly & Robbie" ISRC DEQ121114287 INDEX 01 00:00:00FILE "10 The Great Escape.wav" WAVE TRACK 10 AUDIO TITLE "The Great Escape" PERFORMER "Sly & Robbie" ISRC DEQ121114288 INDEX 01 00:00:00


Трекер:  [ 27-Июн-2012 16:15 ]

  

Скачать .torrent

Размер .torrent файла 20 KB


Размер: 250 MB
Хэш (hash) релиза: 62f166bd7c1ce528c1f00dd72b3828d877ab5b3d

Еще никто не оставлял запись к записи скачать торрент Sly & Robbie - Blackwood Dub - 2012, FLAC . Будь первым!

!Обратная связь