Kamuflaż / Covert Affairs (... | La piccola casa in riva al mare | Beauty4K - Esperanza Del Horno - Sex Marathon after Nightclub Meeting

Скачать через торрент музыку Benjamin Zephaniah & The Hazardous Dub Company - Back To Roots - 1995, APE бесплатно без регистрации torrent

Статистика раздачи
Размер:  228 MB   |    Зарегистрирован:  6 лет   |    .torrent скачан:  68 раз   |   
Раздают:  1  
   
загрузка...
 
Автор Сообщение

_N_

avatar _N_


Benjamin Zephaniah & The Hazardous Dub Company - Back To Roots

Жанр: Reggae / Dub Poetry
Год издания: 1995
Издатель (лейбл): Acid Jazz
Номер по каталогу: UK
Аудиокодек: APE (*.ape)
Тип рипа: image+.cue
Битрейт аудио: lossless
Продолжительность: 41:58.093
Источник (релизер): yocto
Наличие сканов в содержимом раздачи: да
Треклист:
1.One Tribe [4:52]
2.Palestine [4:45]
3.Do It [4:40]
4.Mornin' Come [4:32]
5.Self Defence [4:33]
6.Dry [4:50]
7.Allies [4:53]
8.Mek Luv [4:29]
9.Rudie Dead [4:23]
  
Exact Audio Copy V1.0 beta 2 from 29. April 2011

EAC extraction logfile from 28. April 2012, 11:39

Benjamin Zephaniah & The Hazardous Dub Company / Back To Roots

Used drive : HL-DT-STDVDRAM GSA-T40N Adapter: 1 ID: 0

Read mode : SecureUtilize accurate stream : YesDefeat audio cache : YesMake use of C2 pointers : No

Read offset correction : 667Overread into Lead-In and Lead-Out : NoFill up missing offset samples with silence : YesDelete leading and trailing silent blocks : NoNull samples used in CRC calculations : YesUsed interface : Native Win32 interface for Win NT & 2000

Used output format : Monkey's Audio Lossless EncoderSelected bitrate : Normal Lossless CompressionQuality : HighAdd ID3 tag : NoCommand line compressor : C:\Program Files\Monkey's Audio\MAC.exeAdditional command line options : %tracknr% %artist% %title% %albumtitle% %year% %genre% %albumcomposer% %albumartist% %numtracks%

TOC of the extracted CD

Track | Start | Length | Start sector | End sector --------------------------------------------------------- 1 | 0:00.32 | 4:52.20 | 32 | 21951 2 | 4:52.52 | 4:45.13 | 21952 | 43339 3 | 9:37.65 | 4:39.50 | 43340 | 64314 4 | 14:17.40 | 4:31.72 | 64315 | 84711 5 | 18:49.37 | 4:32.60 | 84712 | 105171 6 | 23:22.22 | 4:50.20 | 105172 | 126941 7 | 28:12.42 | 4:52.43 | 126942 | 148884 8 | 33:05.10 | 4:29.37 | 148885 | 169096 9 | 37:34.47 | 4:23.35 | 169097 | 188856

Range status and errors

Selected range

Filename D:\Benjamin Zephaniah & The Hazardous Dub Company - Back To Roots.wav

Peak level 99.4 % Extraction speed 1.3 X Range quality 100.0 % Test CRC 55411555 Copy CRC 55411555 Copy OK

No errors occurred

End of status report

==== Log checksum 4A3E5F95F74981B4748108F3959C98EA425D5BF36C9D8FFD97CAC6E81FD36043 ====
  
REM GENRE ReggaeREM DATE 1995REM DISCID 8709D609REM COMMENT "ExactAudioCopy v1.0b2"PERFORMER "Benjamin Zephaniah & The Hazardous Dub Company"TITLE "Back To Roots"FILE "Benjamin Zephaniah & The Hazardous Dub Company - Back To Roots.ape" WAVE TRACK 01 AUDIO TITLE "One Tribe" PERFORMER "Benjamin Zephaniah & The Hazardous Dub Company" INDEX 00 00:00:00 INDEX 01 00:00:32 TRACK 02 AUDIO TITLE "Palestine" PERFORMER "Benjamin Zephaniah & The Hazardous Dub Company" INDEX 00 04:51:59 INDEX 01 04:52:52 TRACK 03 AUDIO TITLE "Do It" PERFORMER "Benjamin Zephaniah & The Hazardous Dub Company" INDEX 00 09:37:19 INDEX 01 09:37:65 TRACK 04 AUDIO TITLE "Mornin` Come" PERFORMER "Benjamin Zephaniah & The Hazardous Dub Company" INDEX 00 14:17:07 INDEX 01 14:17:40 TRACK 05 AUDIO TITLE "Self Defense" PERFORMER "Benjamin Zephaniah & The Hazardous Dub Company" INDEX 00 18:49:27 INDEX 01 18:49:37 TRACK 06 AUDIO TITLE "Dry" PERFORMER "Benjamin Zephaniah & The Hazardous Dub Company" INDEX 00 23:22:19 INDEX 01 23:22:22 TRACK 07 AUDIO TITLE "Allies" PERFORMER "Benjamin Zephaniah & The Hazardous Dub Company" INDEX 00 28:12:19 INDEX 01 28:12:42 TRACK 08 AUDIO TITLE "Mek Luv" PERFORMER "Benjamin Zephaniah & The Hazardous Dub Company" INDEX 00 33:05:02 INDEX 01 33:05:10 TRACK 09 AUDIO TITLE "Rudie Dead" PERFORMER "Benjamin Zephaniah & The Hazardous Dub Company" INDEX 00 37:34:44 INDEX 01 37:34:47


Трекер:  [ 27-Июн-2012 16:15 ]

  

Скачать .torrent

Размер .torrent файла 25 KB


Размер: 228 MB
Хэш (hash) релиза: 470d052a1710c5b4adc02a5ba437006899b2fdf1

Еще никто не оставлял запись к записи скачать торрент Benjamin Zephaniah & The Hazardous Dub Company - Back To Roots - 1995, APE . Будь первым!

!Обратная связь