Microsoft BizTalk Server 2016 | IMDb: 4.9 HD Middleground | Streaminfr.com

Скачать через торрент музыку G.G.s All Stars бесплатно без регистрации torrent

Статистика раздачи
Размер:  552 MB   |    Зарегистрирован:  6 лет   |    .torrent скачан:  70 раз   |   
Раздают:  1  
   
загрузка...
 
Автор Сообщение

_N_

avatar _N_


G.G.'s All Stars / Roots Man Dub (1978)

Жанр: Dub
Страна-производитель диска: US
Год издания: 2007
Издатель (лейбл): Heartbeat
Номер по каталогу: 11661-7832-2
Аудиокодек: FLAC (*.flac)
Тип рипа: image+.cue
Битрейт аудио: lossless
Источник (релизер): cd
Продолжительность: cd1 - 50:42 ; cd2 - 55:40
Наличие сканов в содержимом раздачи: нет
  
CD1:01 Black Star Dub (2:56)02 Roots Man Dub (3:47)03 Runaway Dub (3:20)04 Iron Gate (3:16)05 Rockets Dub (2:12)06 Dub On The Track (4:04)07 Macabak Rock (3:21)08 Ital Collie (3:15)09 Herb Man Skank (3:10)10 Heartical Dub (3:25)11 Let Dub Abide (3:30)12 Loving Dub (3:47)13 Over Africa (3:36)14 Dub Again Rasta (3:32)15 Mad Dub (3:30)

CD2:01 Let Me Dub (4:10)02 Midnight Dub (4:08)03 Don't Worry Dub (3:54)04 Rock Me Dub (4:03)05 Get You Dubbing (4:20)06 Tell Me The Dub (3:51)07 See Me Dub (3:19)08 No Yo Yo Dube (4:10)09 You Want A Dub (4:04)10 A Warning Dub (4:03)11 Run Come Dub (4:09)12 Each Day Dub (3:18)13 Soulful Dub (3:42)14 Stand By Dub (4:29)
  
Exact Audio Copy V1.0 beta 3 from 29. August 2011

EAC extraction logfile from 2. June 2012, 20:50

G.G.'s All Stars / Roots Man Dub CD1

Used drive : Optiarc BD RW BD-5300S Adapter: 1 ID: 1

Read mode : SecureUtilize accurate stream : YesDefeat audio cache : YesMake use of C2 pointers : No

Read offset correction : 6Overread into Lead-In and Lead-Out : NoFill up missing offset samples with silence : YesDelete leading and trailing silent blocks : NoNull samples used in CRC calculations : YesUsed interface : Installed external ASPI interface

Used output format : User Defined EncoderSelected bitrate : 1024 kBit/sQuality : HighAdd ID3 tag : NoCommand line compressor : C:\Program Files\Exact Audio Copy\Flac\flac.exeAdditional command line options : -8 -V %source%

TOC of the extracted CD

Track | Start | Length | Start sector | End sector --------------------------------------------------------- 1 | 0:00.00 | 2:56.00 | 0 | 13199 2 | 2:56.00 | 3:47.00 | 13200 | 30224 3 | 6:43.00 | 3:20.37 | 30225 | 45261 4 | 10:03.37 | 3:16.00 | 45262 | 59961 5 | 13:19.37 | 2:12.00 | 59962 | 69861 6 | 15:31.37 | 4:04.37 | 69862 | 88198 7 | 19:35.74 | 3:20.38 | 88199 | 103236 8 | 22:56.37 | 3:15.37 | 103237 | 117898 9 | 26:11.74 | 3:10.00 | 117899 | 132148 10 | 29:21.74 | 3:24.38 | 132149 | 147486 11 | 32:46.37 | 3:29.38 | 147487 | 163199 12 | 36:16.00 | 3:47.37 | 163200 | 180261 13 | 40:03.37 | 3:35.38 | 180262 | 196424 14 | 43:39.00 | 3:32.37 | 196425 | 212361 15 | 47:11.37 | 3:30.30 | 212362 | 228141

Range status and errors

Selected range

Filename J:\temp\nnm\GGs All Stars - Roots Man Dub CD1.wav

Peak level 98.1 % Extraction speed 7.4 X Range quality 100.0 % Test CRC C2BFC1EA Copy CRC C2BFC1EA Copy OK

No errors occurred

AccurateRip summary

Track 1 accurately ripped (confidence 5) [741725CB] (AR v1)Track 2 accurately ripped (confidence 6) [B9522572] (AR v1)Track 3 accurately ripped (confidence 6) [4528001A] (AR v1)Track 4 accurately ripped (confidence 6) [4A60353E] (AR v1)Track 5 accurately ripped (confidence 6) [28341404] (AR v1)Track 6 accurately ripped (confidence 6) [8A5D74A9] (AR v1)Track 7 accurately ripped (confidence 6) [5E3C11C1] (AR v1)Track 8 accurately ripped (confidence 6) [CDEA24D8] (AR v1)Track 9 accurately ripped (confidence 6) [5031F763] (AR v1)Track 10 accurately ripped (confidence 6) [6105B0AC] (AR v1)Track 11 accurately ripped (confidence 6) [30B48FFE] (AR v1)Track 12 accurately ripped (confidence 6) [57D325A5] (AR v1)Track 13 accurately ripped (confidence 6) [14213AC4] (AR v1)Track 14 accurately ripped (confidence 6) [BA48939F] (AR v1)Track 15 accurately ripped (confidence 5) [9D2150CD] (AR v1)

All tracks accurately ripped

End of status report

---- CUETools DB Plugin V2.1.3

[CTDB TOCID: Q1LhmG.WqLcYFhTx8EDumqIeYiY-] disk not present in database, Submit result: Q1LhmG.WqLcYFhTx8EDumqIeYiY- has been uploaded

==== Log checksum 4A16D2C74183A90E0EC05936BFA6E4EAFD3E96D11ADEE8DB26F05A7447C434CE ====
  
Exact Audio Copy V1.0 beta 3 from 29. August 2011

EAC extraction logfile from 2. June 2012, 21:08

G.G.'s All Stars / Roots Man Dub CD2

Used drive : Optiarc BD RW BD-5300S Adapter: 1 ID: 1

Read mode : SecureUtilize accurate stream : YesDefeat audio cache : YesMake use of C2 pointers : No

Read offset correction : 6Overread into Lead-In and Lead-Out : NoFill up missing offset samples with silence : YesDelete leading and trailing silent blocks : NoNull samples used in CRC calculations : YesUsed interface : Installed external ASPI interface

Used output format : User Defined EncoderSelected bitrate : 1024 kBit/sQuality : HighAdd ID3 tag : NoCommand line compressor : C:\Program Files\Exact Audio Copy\Flac\flac.exeAdditional command line options : -8 -V %source%

TOC of the extracted CD

Track | Start | Length | Start sector | End sector --------------------------------------------------------- 1 | 0:00.00 | 4:10.00 | 0 | 18749 2 | 4:10.00 | 4:08.00 | 18750 | 37349 3 | 8:18.00 | 3:54.00 | 37350 | 54899 4 | 12:12.00 | 4:03.00 | 54900 | 73124 5 | 16:15.00 | 4:20.37 | 73125 | 92661 6 | 20:35.37 | 3:50.38 | 92662 | 109949 7 | 24:26.00 | 3:19.00 | 109950 | 124874 8 | 27:45.00 | 4:10.00 | 124875 | 143624 9 | 31:55.00 | 4:04.00 | 143625 | 161924 10 | 35:59.00 | 4:03.37 | 161925 | 180186 11 | 40:02.37 | 4:09.00 | 180187 | 198861 12 | 44:11.37 | 3:18.00 | 198862 | 213711 13 | 47:29.37 | 3:42.00 | 213712 | 230361 14 | 51:11.37 | 4:28.43 | 230362 | 250504

Range status and errors

Selected range

Filename J:\temp\nnm\GGs All Stars - Roots Man Dub CD2.wav

Peak level 98.1 % Extraction speed 7.6 X Range quality 100.0 % Test CRC C5A85F71 Copy CRC C5A85F71 Copy OK

No errors occurred

AccurateRip summary

Track 1 accurately ripped (confidence 5) [D6D276F8] (AR v1)Track 2 accurately ripped (confidence 6) [5F67D836] (AR v1)Track 3 accurately ripped (confidence 6) [9A98AD26] (AR v1)Track 4 accurately ripped (confidence 6) [B8786D58] (AR v1)Track 5 accurately ripped (confidence 5) [8F9BDDC0] (AR v1)Track 6 accurately ripped (confidence 6) [838B8282] (AR v1)Track 7 accurately ripped (confidence 6) [55442C01] (AR v1)Track 8 accurately ripped (confidence 6) [68258D6F] (AR v1)Track 9 accurately ripped (confidence 6) [22DBB064] (AR v1)Track 10 accurately ripped (confidence 6) [36BCCC93] (AR v1)Track 11 accurately ripped (confidence 6) [A5C96B71] (AR v1)Track 12 accurately ripped (confidence 6) [F4C0F766] (AR v1)Track 13 accurately ripped (confidence 6) [7A167855] (AR v1)Track 14 accurately ripped (confidence 6) [EB60597D] (AR v1)

All tracks accurately ripped

End of status report

---- CUETools DB Plugin V2.1.3

[CTDB TOCID: XHXDMBL_M4unhPkwqOFfMOJKbII-] disk not present in database, Submit result: XHXDMBL_M4unhPkwqOFfMOJKbII- has been uploaded

==== Log checksum FD9AFAEC5F6F3718647EA398D8ED697EF4497D9160D41017DCFDE0A9F1DBFD92 ====


Трекер:  [ 27-Июн-2012 16:15 ]

  

Скачать .torrent

Размер .torrent файла 11 KB


Размер: 552 MB
Хэш (hash) релиза: 5edc55ca42d33d2f2bfe46ca1ddbbcda1b2caf86

Еще никто не оставлял запись к записи скачать торрент G.G.s All Stars . Будь первым!

!Обратная связь