Dark Journey | Welcome the Stranger FRENCH WEBRIP 1080p 2018 | videók megtekintése

Скачать через торрент музыку Bob Marley & The Wailers - Trench Town Rising: The Lee Perry Sessions - 2012, FLAC бесплатно без регистрации torrent

Статистика раздачи
Размер:  632 MB   |    Зарегистрирован:  6 лет 1 месяц   |    .torrent скачан:  84 раза   |   
Раздают:  1  
   
загрузка...
 
Автор Сообщение

_N_

avatar _N_


Bob Marley & The Wailers / Trench Town Rising: The Lee Perry Sessions

Жанр: Roots Reggae, Ska, Rocksteady
Год издания: 2012
Издатель (лейбл): Royale Palme Records
Номер по каталогу: 250307
Страна: Kingston, Jamaica
Аудиокодек: FLAC (*.flac)
Тип рипа: tracks+.cue
Битрейт аудио: lossless
Продолжительность: 02:33:41
Источник (релизер): What.CD (pastafaricubensis)
Наличие сканов в содержимом раздачи: нет
Soul Rebels
01. Soul Rebel 03:44
02. Try Me 02:59
03. It's Alright 02:35
04. No Sympathy 02:14
05. My Cup 03:32
06. Soul Almighty 02:41
07. Rebel's Hop
(a.ka. Rude Boy/ Cloud Nine) 02:37
08. Corner Stone 02:28
09. Four Hundred Years 02:30
10. No Water 02:08
11. Reaction 02:40
12. My Sympathy 02:43
Soul Revolution
13. Keep On Moving 03:05
14. Don't Rock My Boat
(a.k.a. Satisfy My Soul) 04:31
15. Put It On 03:06
16. Fussing And Fighting 02:28
17. Duppy Conqueror V4 03:30
18. Memphis 02:57
19. Soul Rebel V4 03:44
20. Riding High 02:47
21. Kaya 02:31
22. African Herbsman 02:27
23. Stand Alone 02:09
24. Sun Is Shining
(a.k.a. To The Rescue) 02:13
25. Brain Washing 02:38
26. Mr. Brown (a.k.a. Dracula)
African Herbsman
01. Lively Up Yourself 02:52
02. Small Axe 03:44
03. Trench Town Rock 03:00
04. All In One 03:33
Lee Perry Upsets Again
05. Natural Mystic 05:12
06. Rainbow Country 05:48
07. Mellow Mood 02:33
08. Run For Cover 03:15
09. Man To Man
(a.k.a. Who The Cap Fits) 03:31
10. Chances Are 03:17
11. Hammer 02:53
12. How Many Times 02:23
13. There She Goes 02:33
14. Touch Me 03:05
15. Treat Your Right 02:10
16. You Can't Do That To Me 02:49
The Best Of Bob Marley & The Wailers
17. Soul Shakedown Party 3:07
18. Stop The Train 02:20
19. Caution 02:44
20. Soul Captives 02:03
21. Can't You See 02:44
22. Soon Come 02:16
23. Cheer Up 02:03
24. Back Out 02:13
25. Do It Twice 02:45
26. Go Tell It On The Mountain 03:14
  
Exact Audio Copy V1.0 beta 2 from 29. April 2011

EAC extraction logfile from 1. June 2012, 19:56

Bob Marley & The Wailers / Trench Town Rising: The Lee Perry Sessions (Disc 1)

Used drive : SONY DVD RW DW-U18A Adapter: 0 ID: 0

Read mode : SecureUtilize accurate stream : YesDefeat audio cache : YesMake use of C2 pointers : No

Read offset correction : 12Overread into Lead-In and Lead-Out : NoFill up missing offset samples with silence : YesDelete leading and trailing silent blocks : NoNull samples used in CRC calculations : YesUsed interface : Native Win32 interface for Win NT & 2000Gap handling : Appended to previous track

Used output format : User Defined EncoderSelected bitrate : 1024 kBit/sQuality : HighAdd ID3 tag : NoCommand line compressor : C:\Program Files\FLAC\flac.exeAdditional command line options : -8 -V -T "ARTIST=%artist%" -T "TITLE=%title%" -T "ALBUM=%albumtitle%" -T "DATE=%year%" -T "TRACKNUMBER=%tracknr%" -T "GENRE=%genre%" -T "PERFORMER=%albuminterpret%" -T "COMPOSER=%composer%" %haslyrics%--tag-from-file=LYRICS

TOC of the extracted CD

Track | Start | Length | Start sector | End sector --------------------------------------------------------- 1 | 0:00.00 | 3:46.02 | 0 | 16951 2 | 3:46.02 | 2:50.54 | 16952 | 29755 3 | 6:36.56 | 2:37.09 | 29756 | 41539 4 | 9:13.65 | 2:17.06 | 41540 | 51820 5 | 11:30.71 | 3:35.48 | 51821 | 67993 6 | 15:06.44 | 2:44.37 | 67994 | 80330 7 | 17:51.06 | 2:41.70 | 80331 | 92475 8 | 20:33.01 | 2:28.14 | 92476 | 103589 9 | 23:01.15 | 2:36.29 | 103590 | 115318 10 | 25:37.44 | 2:10.26 | 115319 | 125094 11 | 27:47.70 | 2:44.28 | 125095 | 137422 12 | 30:32.23 | 2:44.11 | 137423 | 149733 13 | 33:16.34 | 3:08.67 | 149734 | 163900 14 | 36:25.26 | 4:34.11 | 163901 | 184461 15 | 40:59.37 | 3:09.60 | 184462 | 198696 16 | 44:09.22 | 2:31.01 | 198697 | 210022 17 | 46:40.23 | 3:30.32 | 210023 | 225804 18 | 50:10.55 | 2:57.59 | 225805 | 239138 19 | 53:08.39 | 2:55.60 | 239139 | 252323 20 | 56:04.24 | 2:50.26 | 252324 | 265099 21 | 58:54.50 | 2:34.33 | 265100 | 276682 22 | 61:29.08 | 2:30.11 | 276683 | 287943 23 | 63:59.19 | 2:12.32 | 287944 | 297875 24 | 66:11.51 | 2:16.19 | 297876 | 308094 25 | 68:27.70 | 2:40.71 | 308095 | 320165 26 | 71:08.66 | 3:32.51 | 320166 | 336116

Track 1

Filename C:\pastafari\Bob Marley & The Wailers - Trench Town Rising- The Lee Perry Sessions (Disc 1) (2012) [FLAC]\01 - Soul Rebel.wav

Pre-gap length 0:00:02.00

Peak level 100.0 % Extraction speed 7.8 X Track quality 100.0 % Test CRC B00981ED Copy CRC B00981ED Track not present in AccurateRip database Copy OK

Track 2

Filename C:\pastafari\Bob Marley & The Wailers - Trench Town Rising- The Lee Perry Sessions (Disc 1) (2012) [FLAC]\02 - Try Me.wav

Pre-gap length 0:00:01.00

Peak level 100.0 % Extraction speed 8.4 X Track quality 100.0 % Test CRC 819A8A95 Copy CRC 819A8A95 Track not present in AccurateRip database Copy OK

Track 3

Filename C:\pastafari\Bob Marley & The Wailers - Trench Town Rising- The Lee Perry Sessions (Disc 1) (2012) [FLAC]\03 - It's Alright.wav

Pre-gap length 0:00:01.00

Peak level 100.0 % Extraction speed 8.2 X Track quality 100.0 % Test CRC 6FFFF7CD Copy CRC 6FFFF7CD Track not present in AccurateRip database Copy OK

Track 4

Filename C:\pastafari\Bob Marley & The Wailers - Trench Town Rising- The Lee Perry Sessions (Disc 1) (2012) [FLAC]\04 - No Sympathy.wav

Pre-gap length 0:00:01.00

Peak level 100.0 % Extraction speed 7.1 X Track quality 99.9 % Test CRC CCA6398F Copy CRC CCA6398F Track not present in AccurateRip database Copy OK

Track 5

Filename C:\pastafari\Bob Marley & The Wailers - Trench Town Rising- The Lee Perry Sessions (Disc 1) (2012) [FLAC]\05 - My Cup.wav

Pre-gap length 0:00:01.00

Peak level 100.0 % Extraction speed 9.6 X Track quality 100.0 % Test CRC 4D29F756 Copy CRC 4D29F756 Track not present in AccurateRip database Copy OK

Track 6

Filename C:\pastafari\Bob Marley & The Wailers - Trench Town Rising- The Lee Perry Sessions (Disc 1) (2012) [FLAC]\06 - Soul Almighty.wav

Pre-gap length 0:00:01.00

Peak level 100.0 % Extraction speed 9.9 X Track quality 100.0 % Test CRC A3048B44 Copy CRC A3048B44 Track not present in AccurateRip database Copy OK

Track 7

Filename C:\pastafari\Bob Marley & The Wailers - Trench Town Rising- The Lee Perry Sessions (Disc 1) (2012) [FLAC]\07 - Rebel's Hop.wav

Pre-gap length 0:00:01.00

Peak level 100.0 % Extraction speed 9.8 X Track quality 100.0 % Test CRC 86B1FA85 Copy CRC 86B1FA85 Track not present in AccurateRip database Copy OK

Track 8

Filename C:\pastafari\Bob Marley & The Wailers - Trench Town Rising- The Lee Perry Sessions (Disc 1) (2012) [FLAC]\08 - Corner Stone.wav

Pre-gap length 0:00:01.00

Peak level 100.0 % Extraction speed 10.2 X Track quality 100.0 % Test CRC 2A200FD3 Copy CRC 2A200FD3 Track not present in AccurateRip database Copy OK

Track 9

Filename C:\pastafari\Bob Marley & The Wailers - Trench Town Rising- The Lee Perry Sessions (Disc 1) (2012) [FLAC]\09 - 400 Years.wav

Pre-gap length 0:00:01.00

Peak level 100.0 % Extraction speed 8.1 X Track quality 99.9 % Test CRC DF07CD39 Copy CRC DF07CD39 Track not present in AccurateRip database Copy OK

Track 10

Filename C:\pastafari\Bob Marley & The Wailers - Trench Town Rising- The Lee Perry Sessions (Disc 1) (2012) [FLAC]\10 - No Water.wav

Pre-gap length 0:00:00.98

Peak level 100.0 % Extraction speed 10.5 X Track quality 100.0 % Test CRC 45990FE3 Copy CRC 45990FE3 Track not present in AccurateRip database Copy OK

Track 11

Filename C:\pastafari\Bob Marley & The Wailers - Trench Town Rising- The Lee Perry Sessions (Disc 1) (2012) [FLAC]\11 - Reaction.wav

Pre-gap length 0:00:01.00

Peak level 100.0 % Extraction speed 11.0 X Track quality 100.0 % Test CRC C877BE8C Copy CRC C877BE8C Track not present in AccurateRip database Copy OK

Track 12

Filename C:\pastafari\Bob Marley & The Wailers - Trench Town Rising- The Lee Perry Sessions (Disc 1) (2012) [FLAC]\12 - My Sympathy.wav

Pre-gap length 0:00:01.00

Peak level 97.0 % Extraction speed 11.2 X Track quality 100.0 % Test CRC 98855487 Copy CRC 98855487 Track not present in AccurateRip database Copy OK

Track 13

Filename C:\pastafari\Bob Marley & The Wailers - Trench Town Rising- The Lee Perry Sessions (Disc 1) (2012) [FLAC]\13 - Keep On Moving.wav

Pre-gap length 0:00:01.00

Peak level 100.0 % Extraction speed 8.8 X Track quality 99.9 % Test CRC 11594103 Copy CRC 11594103 Track not present in AccurateRip database Copy OK

Track 14

Filename C:\pastafari\Bob Marley & The Wailers - Trench Town Rising- The Lee Perry Sessions (Disc 1) (2012) [FLAC]\14 - Don't Rock My Boat (Satisfy My Soul).wav

Pre-gap length 0:00:01.00

Peak level 100.0 % Extraction speed 12.2 X Track quality 100.0 % Test CRC 1E4F376D Copy CRC 1E4F376D Track not present in AccurateRip database Copy OK

Track 15

Filename C:\pastafari\Bob Marley & The Wailers - Trench Town Rising- The Lee Perry Sessions (Disc 1) (2012) [FLAC]\15 - Put It On.wav

Pre-gap length 0:00:01.00

Peak level 100.0 % Extraction speed 12.1 X Track quality 100.0 % Test CRC 52443496 Copy CRC 52443496 Track not present in AccurateRip database Copy OK

Track 16

Filename C:\pastafari\Bob Marley & The Wailers - Trench Town Rising- The Lee Perry Sessions (Disc 1) (2012) [FLAC]\16 - Fussing And Fighting.wav

Pre-gap length 0:00:01.00

Peak level 100.0 % Extraction speed 12.1 X Track quality 100.0 % Test CRC CAAB370A Copy CRC CAAB370A Track not present in AccurateRip database Copy OK

Track 17

Filename C:\pastafari\Bob Marley & The Wailers - Trench Town Rising- The Lee Perry Sessions (Disc 1) (2012) [FLAC]\17 - Duppy Conqueror V4.wav

Pre-gap length 0:00:01.00

Peak level 100.0 % Extraction speed 12.6 X Track quality 100.0 % Test CRC D7426851 Copy CRC D7426851 Track not present in AccurateRip database Copy OK

Track 18

Filename C:\pastafari\Bob Marley & The Wailers - Trench Town Rising- The Lee Perry Sessions (Disc 1) (2012) [FLAC]\18 - Memphis.wav

Pre-gap length 0:00:01.00

Peak level 100.0 % Extraction speed 12.7 X Track quality 100.0 % Test CRC BB9086D3 Copy CRC BB9086D3 Track not present in AccurateRip database Copy OK

Track 19

Filename C:\pastafari\Bob Marley & The Wailers - Trench Town Rising- The Lee Perry Sessions (Disc 1) (2012) [FLAC]\19 - Soul Rebel - Version 4.wav

Pre-gap length 0:00:01.00

Peak level 47.8 % Extraction speed 12.9 X Track quality 100.0 % Test CRC FC36C0BE Copy CRC FC36C0BE Track not present in AccurateRip database Copy OK

Track 20

Filename C:\pastafari\Bob Marley & The Wailers - Trench Town Rising- The Lee Perry Sessions (Disc 1) (2012) [FLAC]\20 - Riding High.wav

Pre-gap length 0:00:01.00

Peak level 100.0 % Extraction speed 12.7 X Track quality 100.0 % Test CRC E16D2A45 Copy CRC E16D2A45 Track not present in AccurateRip database Copy OK

Track 21

Filename C:\pastafari\Bob Marley & The Wailers - Trench Town Rising- The Lee Perry Sessions (Disc 1) (2012) [FLAC]\21 - Kaya.wav

Pre-gap length 0:00:01.00

Peak level 100.0 % Extraction speed 13.0 X Track quality 100.0 % Test CRC 1F6AA2FB Copy CRC 1F6AA2FB Track not present in AccurateRip database Copy OK

Track 22

Filename C:\pastafari\Bob Marley & The Wailers - Trench Town Rising- The Lee Perry Sessions (Disc 1) (2012) [FLAC]\22 - African Herbsman.wav

Pre-gap length 0:00:01.00

Peak level 100.0 % Extraction speed 13.0 X Track quality 100.0 % Test CRC 7E8F68E5 Copy CRC 7E8F68E5 Track not present in AccurateRip database Copy OK

Track 23

Filename C:\pastafari\Bob Marley & The Wailers - Trench Town Rising- The Lee Perry Sessions (Disc 1) (2012) [FLAC]\23 - Stand Alone.wav

Pre-gap length 0:00:01.00

Peak level 100.0 % Extraction speed 13.2 X Track quality 100.0 % Test CRC 0F9DD867 Copy CRC 0F9DD867 Track not present in AccurateRip database Copy OK

Track 24

Filename C:\pastafari\Bob Marley & The Wailers - Trench Town Rising- The Lee Perry Sessions (Disc 1) (2012) [FLAC]\24 - Sun Is Shining.wav

Pre-gap length 0:00:01.00

Peak level 100.0 % Extraction speed 13.3 X Track quality 100.0 % Test CRC 1670F528 Copy CRC 1670F528 Track not present in AccurateRip database Copy OK

Track 25

Filename C:\pastafari\Bob Marley & The Wailers - Trench Town Rising- The Lee Perry Sessions (Disc 1) (2012) [FLAC]\25 - Brain Washing.wav

Pre-gap length 0:00:01.00

Peak level 100.0 % Extraction speed 13.6 X Track quality 100.0 % Test CRC 570E8A97 Copy CRC 570E8A97 Track not present in AccurateRip database Copy OK

Track 26

Filename C:\pastafari\Bob Marley & The Wailers - Trench Town Rising- The Lee Perry Sessions (Disc 1) (2012) [FLAC]\26 - Mr. Brown (A.K.A. Dracula).wav

Pre-gap length 0:00:01.00

Peak level 100.0 % Extraction speed 11.3 X Track quality 100.0 % Test CRC 5A8D4E8B Copy CRC 5A8D4E8B Track not present in AccurateRip database Copy OK

None of the tracks are present in the AccurateRip database

No errors occurred

End of status report

==== Log checksum E8EFA01FC8DC3C383FC4425F557980593C3AD260F56C0A38D65B05E6B7D3C056 ====
  
Exact Audio Copy V1.0 beta 2 from 29. April 2011

EAC extraction logfile from 1. June 2012, 20:35

Bob Marley & The Wailers / Trench Town Rising: The Lee Perry Sessions (Disc 2)

Used drive : SONY DVD RW DW-U18A Adapter: 0 ID: 0

Read mode : SecureUtilize accurate stream : YesDefeat audio cache : YesMake use of C2 pointers : No

Read offset correction : 12Overread into Lead-In and Lead-Out : NoFill up missing offset samples with silence : YesDelete leading and trailing silent blocks : NoNull samples used in CRC calculations : YesUsed interface : Native Win32 interface for Win NT & 2000Gap handling : Appended to previous track

Used output format : User Defined EncoderSelected bitrate : 1024 kBit/sQuality : HighAdd ID3 tag : NoCommand line compressor : C:\Program Files\FLAC\flac.exeAdditional command line options : -8 -V -T "ARTIST=%artist%" -T "TITLE=%title%" -T "ALBUM=%albumtitle%" -T "DATE=%year%" -T "TRACKNUMBER=%tracknr%" -T "GENRE=%genre%" -T "PERFORMER=%albuminterpret%" -T "COMPOSER=%composer%" %haslyrics%--tag-from-file=LYRICS

TOC of the extracted CD

Track | Start | Length | Start sector | End sector --------------------------------------------------------- 1 | 0:00.00 | 2:55.38 | 0 | 13162 2 | 2:55.38 | 3:46.69 | 13163 | 30181 3 | 6:42.32 | 3:03.28 | 30182 | 43934 4 | 9:45.60 | 3:36.15 | 43935 | 60149 5 | 13:22.00 | 5:12.21 | 60150 | 83570 6 | 18:34.21 | 5:47.19 | 83571 | 109614 7 | 24:21.40 | 2:33.48 | 109615 | 121137 8 | 26:55.13 | 3:14.25 | 121138 | 135712 9 | 30:09.38 | 3:34.13 | 135713 | 151775 10 | 33:43.51 | 3:15.41 | 151776 | 166441 11 | 36:59.17 | 2:53.46 | 166442 | 179462 12 | 39:52.63 | 2:22.62 | 179463 | 190174 13 | 42:15.50 | 2:32.57 | 190175 | 201631 14 | 44:48.32 | 3:07.31 | 201632 | 215687 15 | 47:55.63 | 2:10.14 | 215688 | 225451 16 | 50:06.02 | 2:51.34 | 225452 | 238310 17 | 52:57.36 | 3:10.57 | 238311 | 252617 18 | 56:08.18 | 2:23.23 | 252618 | 263365 19 | 58:31.41 | 2:47.32 | 263366 | 275922 20 | 61:18.73 | 2:06.49 | 275923 | 285421 21 | 63:25.47 | 2:47.19 | 285422 | 297965 22 | 66:12.66 | 2:19.13 | 297966 | 308403 23 | 68:32.04 | 2:06.23 | 308404 | 317876 24 | 70:38.27 | 2:16.25 | 317877 | 328101 25 | 72:54.52 | 2:48.48 | 328102 | 340749 26 | 75:43.25 | 3:16.52 | 340750 | 355501

Track 1

Filename C:\pastafari\Bob Marley & The Wailers - Trench Town Rising- The Lee Perry Sessions (Disc 2) (2012) [FLAC]\01 - Lively Up Yourself.wav

Pre-gap length 0:00:02.00

Peak level 100.0 % Extraction speed 8.1 X Track quality 100.0 % Test CRC C519FC20 Copy CRC C519FC20 Track not present in AccurateRip database Copy OK

Track 2

Filename C:\pastafari\Bob Marley & The Wailers - Trench Town Rising- The Lee Perry Sessions (Disc 2) (2012) [FLAC]\02 - Small Axe.wav

Pre-gap length 0:00:01.00

Peak level 100.0 % Extraction speed 8.4 X Track quality 100.0 % Test CRC 244B1477 Copy CRC 244B1477 Track not present in AccurateRip database Copy OK

Track 3

Filename C:\pastafari\Bob Marley & The Wailers - Trench Town Rising- The Lee Perry Sessions (Disc 2) (2012) [FLAC]\03 - Trench Town Rock.wav

Pre-gap length 0:00:01.00

Peak level 100.0 % Extraction speed 9.1 X Track quality 100.0 % Test CRC 406BFB69 Copy CRC 406BFB69 Track not present in AccurateRip database Copy OK

Track 4

Filename C:\pastafari\Bob Marley & The Wailers - Trench Town Rising- The Lee Perry Sessions (Disc 2) (2012) [FLAC]\04 - All In One.wav

Pre-gap length 0:00:01.00

Peak level 100.0 % Extraction speed 9.7 X Track quality 100.0 % Test CRC 0B35969C Copy CRC 0B35969C Track not present in AccurateRip database Copy OK

Track 5

Filename C:\pastafari\Bob Marley & The Wailers - Trench Town Rising- The Lee Perry Sessions (Disc 2) (2012) [FLAC]\05 - Natural Mystic.wav

Pre-gap length 0:00:01.00

Peak level 100.0 % Extraction speed 9.9 X Track quality 100.0 % Test CRC 7821AE48 Copy CRC 7821AE48 Track not present in AccurateRip database Copy OK

Track 6

Filename C:\pastafari\Bob Marley & The Wailers - Trench Town Rising- The Lee Perry Sessions (Disc 2) (2012) [FLAC]\06 - Rainbow Country.wav

Pre-gap length 0:00:01.00

Peak level 100.0 % Extraction speed 9.7 X Track quality 99.9 % Test CRC 996126BB Copy CRC 996126BB Track not present in AccurateRip database Copy OK

Track 7

Filename C:\pastafari\Bob Marley & The Wailers - Trench Town Rising- The Lee Perry Sessions (Disc 2) (2012) [FLAC]\07 - Mellow Mood.wav

Pre-gap length 0:00:01.00

Peak level 100.0 % Extraction speed 11.0 X Track quality 100.0 % Test CRC 1B5E2ADA Copy CRC 1B5E2ADA Track not present in AccurateRip database Copy OK

Track 8

Filename C:\pastafari\Bob Marley & The Wailers - Trench Town Rising- The Lee Perry Sessions (Disc 2) (2012) [FLAC]\08 - Run For Cover.wav

Pre-gap length 0:00:01.00

Peak level 88.8 % Extraction speed 11.4 X Track quality 100.0 % Test CRC 8B2A3BB4 Copy CRC 8B2A3BB4 Track not present in AccurateRip database Copy OK

Track 9

Filename C:\pastafari\Bob Marley & The Wailers - Trench Town Rising- The Lee Perry Sessions (Disc 2) (2012) [FLAC]\09 - Man To Man.wav

Pre-gap length 0:00:01.00

Peak level 88.6 % Extraction speed 11.8 X Track quality 100.0 % Test CRC 6285742E Copy CRC 6285742E Track not present in AccurateRip database Copy OK

Track 10

Filename C:\pastafari\Bob Marley & The Wailers - Trench Town Rising- The Lee Perry Sessions (Disc 2) (2012) [FLAC]\10 - Chances Are.wav

Pre-gap length 0:00:01.00

Peak level 100.0 % Extraction speed 8.8 X Track quality 99.9 % Test CRC 5EBA4F33 Copy CRC 5EBA4F33 Track not present in AccurateRip database Copy OK

Track 11

Filename C:\pastafari\Bob Marley & The Wailers - Trench Town Rising- The Lee Perry Sessions (Disc 2) (2012) [FLAC]\11 - Hammer.wav

Pre-gap length 0:00:01.00

Peak level 100.0 % Extraction speed 8.3 X Track quality 99.9 % Test CRC 6319F9FC Copy CRC 6319F9FC Track not present in AccurateRip database Copy OK

Track 12

Filename C:\pastafari\Bob Marley & The Wailers - Trench Town Rising- The Lee Perry Sessions (Disc 2) (2012) [FLAC]\12 - How Many Times.wav

Pre-gap length 0:00:01.00

Peak level 100.0 % Extraction speed 11.1 X Track quality 100.0 % Test CRC D4210B0F Copy CRC D4210B0F Track not present in AccurateRip database Copy OK

Track 13

Filename C:\pastafari\Bob Marley & The Wailers - Trench Town Rising- The Lee Perry Sessions (Disc 2) (2012) [FLAC]\13 - There She Goes.wav

Pre-gap length 0:00:01.00

Peak level 100.0 % Extraction speed 12.4 X Track quality 100.0 % Test CRC 546F5CD3 Copy CRC 546F5CD3 Track not present in AccurateRip database Copy OK

Track 14

Filename C:\pastafari\Bob Marley & The Wailers - Trench Town Rising- The Lee Perry Sessions (Disc 2) (2012) [FLAC]\14 - Touch Me.wav

Pre-gap length 0:00:01.00

Peak level 100.0 % Extraction speed 12.6 X Track quality 100.0 % Test CRC 80D14A0C Copy CRC 80D14A0C Track not present in AccurateRip database Copy OK

Track 15

Filename C:\pastafari\Bob Marley & The Wailers - Trench Town Rising- The Lee Perry Sessions (Disc 2) (2012) [FLAC]\15 - Treat Your Right.wav

Pre-gap length 0:00:01.00

Peak level 100.0 % Extraction speed 12.4 X Track quality 100.0 % Test CRC 934B16D3 Copy CRC 934B16D3 Track not present in AccurateRip database Copy OK

Track 16

Filename C:\pastafari\Bob Marley & The Wailers - Trench Town Rising- The Lee Perry Sessions (Disc 2) (2012) [FLAC]\16 - You Can't Do That To Me.wav

Pre-gap length 0:00:01.00

Peak level 100.0 % Extraction speed 12.8 X Track quality 100.0 % Test CRC 6010FF6A Copy CRC 6010FF6A Track not present in AccurateRip database Copy OK

Track 17

Filename C:\pastafari\Bob Marley & The Wailers - Trench Town Rising- The Lee Perry Sessions (Disc 2) (2012) [FLAC]\17 - Soul Shakedown Party.wav

Pre-gap length 0:00:01.00

Peak level 100.0 % Extraction speed 13.8 X Track quality 100.0 % Test CRC C2C058E2 Copy CRC C2C058E2 Track not present in AccurateRip database Copy OK

Track 18

Filename C:\pastafari\Bob Marley & The Wailers - Trench Town Rising- The Lee Perry Sessions (Disc 2) (2012) [FLAC]\18 - Stop The Train.wav

Pre-gap length 0:00:01.00

Peak level 100.0 % Extraction speed 13.0 X Track quality 100.0 % Test CRC 62B492CA Copy CRC 62B492CA Track not present in AccurateRip database Copy OK

Track 19

Filename C:\pastafari\Bob Marley & The Wailers - Trench Town Rising- The Lee Perry Sessions (Disc 2) (2012) [FLAC]\19 - Caution.wav

Pre-gap length 0:00:01.00

Peak level 100.0 % Extraction speed 14.3 X Track quality 100.0 % Test CRC 5A1C221C Copy CRC 5A1C221C Track not present in AccurateRip database Copy OK

Track 20

Filename C:\pastafari\Bob Marley & The Wailers - Trench Town Rising- The Lee Perry Sessions (Disc 2) (2012) [FLAC]\20 - Soul Captives.wav

Pre-gap length 0:00:01.00

Peak level 100.0 % Extraction speed 12.8 X Track quality 100.0 % Test CRC 79278BF2 Copy CRC 79278BF2 Track not present in AccurateRip database Copy OK

Track 21

Filename C:\pastafari\Bob Marley & The Wailers - Trench Town Rising- The Lee Perry Sessions (Disc 2) (2012) [FLAC]\21 - Can't You See.wav

Pre-gap length 0:00:01.00

Peak level 100.0 % Extraction speed 13.6 X Track quality 100.0 % Test CRC 392AA9C7 Copy CRC 392AA9C7 Track not present in AccurateRip database Copy OK

Track 22

Filename C:\pastafari\Bob Marley & The Wailers - Trench Town Rising- The Lee Perry Sessions (Disc 2) (2012) [FLAC]\22 - Soon Come.wav

Pre-gap length 0:00:01.00

Peak level 100.0 % Extraction speed 13.6 X Track quality 100.0 % Test CRC 8FA5BE27 Copy CRC 8FA5BE27 Track not present in AccurateRip database Copy OK

Track 23

Filename C:\pastafari\Bob Marley & The Wailers - Trench Town Rising- The Lee Perry Sessions (Disc 2) (2012) [FLAC]\23 - Cheer Up.wav

Pre-gap length 0:00:01.00

Peak level 100.0 % Extraction speed 14.8 X Track quality 100.0 % Test CRC 689BA30F Copy CRC 689BA30F Track not present in AccurateRip database Copy OK

Track 24

Filename C:\pastafari\Bob Marley & The Wailers - Trench Town Rising- The Lee Perry Sessions (Disc 2) (2012) [FLAC]\24 - Back Out.wav

Pre-gap length 0:00:01.00

Peak level 100.0 % Extraction speed 13.7 X Track quality 100.0 % Test CRC E4ED4D98 Copy CRC E4ED4D98 Track not present in AccurateRip database Copy OK

Track 25

Filename C:\pastafari\Bob Marley & The Wailers - Trench Town Rising- The Lee Perry Sessions (Disc 2) (2012) [FLAC]\25 - Do It Twice.wav

Pre-gap length 0:00:01.00

Peak level 100.0 % Extraction speed 7.7 X Track quality 99.9 % Test CRC F4C119A5 Copy CRC F4C119A5 Track not present in AccurateRip database Copy OK

Track 26

Filename C:\pastafari\Bob Marley & The Wailers - Trench Town Rising- The Lee Perry Sessions (Disc 2) (2012) [FLAC]\26 - Go Tell It On The Mountain.wav

Pre-gap length 0:00:01.00

Peak level 100.0 % Extraction speed 6.0 X Track quality 100.0 % Test CRC F2E0A1DD Copy CRC F2E0A1DD Track not present in AccurateRip database Copy OK

None of the tracks are present in the AccurateRip database

No errors occurred

End of status report

==== Log checksum 532E956F5D2D23794F325D0B87DE2A26431B1D72926EE12CE8CC7161031B1EC9 ====
  
REM GENRE ReggaeREM DATE 2012REM DISCID 8F11811AREM COMMENT "ExactAudioCopy v1.0b2"PERFORMER "Bob Marley & The Wailers"TITLE "Trench Town Rising: The Lee Perry Sessions (Disc 1)"FILE "Bob Marley & The Wailers - Trench Town Rising- The Lee Perry Sessions (Disc 1) (2012) [FLAC]\01 - Soul Rebel.wav" WAVE TRACK 01 AUDIO TITLE "Soul Rebel" PERFORMER "Bob Marley & The Wailers" INDEX 01 00:00:00 TRACK 02 AUDIO TITLE "Try Me" PERFORMER "Bob Marley & The Wailers" INDEX 00 03:45:02FILE "Bob Marley & The Wailers - Trench Town Rising- The Lee Perry Sessions (Disc 1) (2012) [FLAC]\02 - Try Me.wav" WAVE INDEX 01 00:00:00 TRACK 03 AUDIO TITLE "It's Alright" PERFORMER "Bob Marley & The Wailers" INDEX 00 02:49:54FILE "Bob Marley & The Wailers - Trench Town Rising- The Lee Perry Sessions (Disc 1) (2012) [FLAC]\03 - It's Alright.wav" WAVE INDEX 01 00:00:00 TRACK 04 AUDIO TITLE "No Sympathy" PERFORMER "Bob Marley & The Wailers" INDEX 00 02:36:09FILE "Bob Marley & The Wailers - Trench Town Rising- The Lee Perry Sessions (Disc 1) (2012) [FLAC]\04 - No Sympathy.wav" WAVE INDEX 01 00:00:00 TRACK 05 AUDIO TITLE "My Cup" PERFORMER "Bob Marley & The Wailers" INDEX 00 02:16:06FILE "Bob Marley & The Wailers - Trench Town Rising- The Lee Perry Sessions (Disc 1) (2012) [FLAC]\05 - My Cup.wav" WAVE INDEX 01 00:00:00 TRACK 06 AUDIO TITLE "Soul Almighty" PERFORMER "Bob Marley & The Wailers" INDEX 00 03:34:48FILE "Bob Marley & The Wailers - Trench Town Rising- The Lee Perry Sessions (Disc 1) (2012) [FLAC]\06 - Soul Almighty.wav" WAVE INDEX 01 00:00:00 TRACK 07 AUDIO TITLE "Rebel's Hop" PERFORMER "Bob Marley & The Wailers" INDEX 00 02:43:37FILE "Bob Marley & The Wailers - Trench Town Rising- The Lee Perry Sessions (Disc 1) (2012) [FLAC]\07 - Rebel's Hop.wav" WAVE INDEX 01 00:00:00 TRACK 08 AUDIO TITLE "Corner Stone" PERFORMER "Bob Marley & The Wailers" INDEX 00 02:40:70FILE "Bob Marley & The Wailers - Trench Town Rising- The Lee Perry Sessions (Disc 1) (2012) [FLAC]\08 - Corner Stone.wav" WAVE INDEX 01 00:00:00 TRACK 09 AUDIO TITLE "400 Years" PERFORMER "Bob Marley & The Wailers" INDEX 00 02:27:14FILE "Bob Marley & The Wailers - Trench Town Rising- The Lee Perry Sessions (Disc 1) (2012) [FLAC]\09 - 400 Years.wav" WAVE INDEX 01 00:00:00 TRACK 10 AUDIO TITLE "No Water" PERFORMER "Bob Marley & The Wailers" INDEX 00 02:35:30FILE "Bob Marley & The Wailers - Trench Town Rising- The Lee Perry Sessions (Disc 1) (2012) [FLAC]\10 - No Water.wav" WAVE INDEX 01 00:00:00 TRACK 11 AUDIO TITLE "Reaction" PERFORMER "Bob Marley & The Wailers" INDEX 00 02:09:26FILE "Bob Marley & The Wailers - Trench Town Rising- The Lee Perry Sessions (Disc 1) (2012) [FLAC]\11 - Reaction.wav" WAVE INDEX 01 00:00:00 TRACK 12 AUDIO TITLE "My Sympathy" PERFORMER "Bob Marley & The Wailers" INDEX 00 02:43:28FILE "Bob Marley & The Wailers - Trench Town Rising- The Lee Perry Sessions (Disc 1) (2012) [FLAC]\12 - My Sympathy.wav" WAVE INDEX 01 00:00:00 TRACK 13 AUDIO TITLE "Keep On Moving" PERFORMER "Bob Marley & The Wailers" INDEX 00 02:43:11FILE "Bob Marley & The Wailers - Trench Town Rising- The Lee Perry Sessions (Disc 1) (2012) [FLAC]\13 - Keep On Moving.wav" WAVE INDEX 01 00:00:00 TRACK 14 AUDIO TITLE "Don't Rock My Boat (Satisfy My Soul)" PERFORMER "Bob Marley & The Wailers" INDEX 00 03:07:67FILE "Bob Marley & The Wailers - Trench Town Rising- The Lee Perry Sessions (Disc 1) (2012) [FLAC]\14 - Don't Rock My Boat (Satisfy My Soul).wav" WAVE INDEX 01 00:00:00 TRACK 15 AUDIO TITLE "Put It On" PERFORMER "Bob Marley & The Wailers" INDEX 00 04:33:11FILE "Bob Marley & The Wailers - Trench Town Rising- The Lee Perry Sessions (Disc 1) (2012) [FLAC]\15 - Put It On.wav" WAVE INDEX 01 00:00:00 TRACK 16 AUDIO TITLE "Fussing And Fighting" PERFORMER "Bob Marley & The Wailers" INDEX 00 03:08:60FILE "Bob Marley & The Wailers - Trench Town Rising- The Lee Perry Sessions (Disc 1) (2012) [FLAC]\16 - Fussing And Fighting.wav" WAVE INDEX 01 00:00:00 TRACK 17 AUDIO TITLE "Duppy Conqueror V4" PERFORMER "Bob Marley & The Wailers" INDEX 00 02:30:01FILE "Bob Marley & The Wailers - Trench Town Rising- The Lee Perry Sessions (Disc 1) (2012) [FLAC]\17 - Duppy Conqueror V4.wav" WAVE INDEX 01 00:00:00 TRACK 18 AUDIO TITLE "Memphis" PERFORMER "Bob Marley & The Wailers" INDEX 00 03:29:32FILE "Bob Marley & The Wailers - Trench Town Rising- The Lee Perry Sessions (Disc 1) (2012) [FLAC]\18 - Memphis.wav" WAVE INDEX 01 00:00:00 TRACK 19 AUDIO TITLE "Soul Rebel - Version 4" PERFORMER "Bob Marley & The Wailers" INDEX 00 02:56:59FILE "Bob Marley & The Wailers - Trench Town Rising- The Lee Perry Sessions (Disc 1) (2012) [FLAC]\19 - Soul Rebel - Version 4.wav" WAVE INDEX 01 00:00:00 TRACK 20 AUDIO TITLE "Riding High" PERFORMER "Bob Marley & The Wailers" INDEX 00 02:54:60FILE "Bob Marley & The Wailers - Trench Town Rising- The Lee Perry Sessions (Disc 1) (2012) [FLAC]\20 - Riding High.wav" WAVE INDEX 01 00:00:00 TRACK 21 AUDIO TITLE "Kaya" PERFORMER "Bob Marley & The Wailers" INDEX 00 02:49:26FILE "Bob Marley & The Wailers - Trench Town Rising- The Lee Perry Sessions (Disc 1) (2012) [FLAC]\21 - Kaya.wav" WAVE INDEX 01 00:00:00 TRACK 22 AUDIO TITLE "African Herbsman" PERFORMER "Bob Marley & The Wailers" INDEX 00 02:33:33FILE "Bob Marley & The Wailers - Trench Town Rising- The Lee Perry Sessions (Disc 1) (2012) [FLAC]\22 - African Herbsman.wav" WAVE INDEX 01 00:00:00 TRACK 23 AUDIO TITLE "Stand Alone" PERFORMER "Bob Marley & The Wailers" INDEX 00 02:29:11FILE "Bob Marley & The Wailers - Trench Town Rising- The Lee Perry Sessions (Disc 1) (2012) [FLAC]\23 - Stand Alone.wav" WAVE INDEX 01 00:00:00 TRACK 24 AUDIO TITLE "Sun Is Shining" PERFORMER "Bob Marley & The Wailers" INDEX 00 02:11:32FILE "Bob Marley & The Wailers - Trench Town Rising- The Lee Perry Sessions (Disc 1) (2012) [FLAC]\24 - Sun Is Shining.wav" WAVE INDEX 01 00:00:00 TRACK 25 AUDIO TITLE "Brain Washing" PERFORMER "Bob Marley & The Wailers" INDEX 00 02:15:19FILE "Bob Marley & The Wailers - Trench Town Rising- The Lee Perry Sessions (Disc 1) (2012) [FLAC]\25 - Brain Washing.wav" WAVE INDEX 01 00:00:00 TRACK 26 AUDIO TITLE "Mr. Brown (A.K.A. Dracula)" PERFORMER "Bob Marley & The Wailers" INDEX 00 02:39:71FILE "Bob Marley & The Wailers - Trench Town Rising- The Lee Perry Sessions (Disc 1) (2012) [FLAC]\26 - Mr. Brown (A.K.A. Dracula).wav" WAVE INDEX 01 00:00:00
  
REM GENRE ReggaeREM DATE 2012REM DISCID 7312841AREM COMMENT "ExactAudioCopy v1.0b2"PERFORMER "Bob Marley & The Wailers"TITLE "Trench Town Rising: The Lee Perry Sessions (Disc 2)"FILE "Bob Marley & The Wailers - Trench Town Rising- The Lee Perry Sessions (Disc 2) (2012) [FLAC]\01 - Lively Up Yourself.wav" WAVE TRACK 01 AUDIO TITLE "Lively Up Yourself" PERFORMER "Bob Marley & The Wailers" INDEX 01 00:00:00 TRACK 02 AUDIO TITLE "Small Axe" PERFORMER "Bob Marley & The Wailers" INDEX 00 02:54:38FILE "Bob Marley & The Wailers - Trench Town Rising- The Lee Perry Sessions (Disc 2) (2012) [FLAC]\02 - Small Axe.wav" WAVE INDEX 01 00:00:00 TRACK 03 AUDIO TITLE "Trench Town Rock" PERFORMER "Bob Marley & The Wailers" INDEX 00 03:45:69FILE "Bob Marley & The Wailers - Trench Town Rising- The Lee Perry Sessions (Disc 2) (2012) [FLAC]\03 - Trench Town Rock.wav" WAVE INDEX 01 00:00:00 TRACK 04 AUDIO TITLE "All In One" PERFORMER "Bob Marley & The Wailers" INDEX 00 03:02:28FILE "Bob Marley & The Wailers - Trench Town Rising- The Lee Perry Sessions (Disc 2) (2012) [FLAC]\04 - All In One.wav" WAVE INDEX 01 00:00:00 TRACK 05 AUDIO TITLE "Natural Mystic" PERFORMER "Bob Marley & The Wailers" INDEX 00 03:35:15FILE "Bob Marley & The Wailers - Trench Town Rising- The Lee Perry Sessions (Disc 2) (2012) [FLAC]\05 - Natural Mystic.wav" WAVE INDEX 01 00:00:00 TRACK 06 AUDIO TITLE "Rainbow Country" PERFORMER "Bob Marley & The Wailers" INDEX 00 05:11:21FILE "Bob Marley & The Wailers - Trench Town Rising- The Lee Perry Sessions (Disc 2) (2012) [FLAC]\06 - Rainbow Country.wav" WAVE INDEX 01 00:00:00 TRACK 07 AUDIO TITLE "Mellow Mood" PERFORMER "Bob Marley & The Wailers" INDEX 00 05:46:19FILE "Bob Marley & The Wailers - Trench Town Rising- The Lee Perry Sessions (Disc 2) (2012) [FLAC]\07 - Mellow Mood.wav" WAVE INDEX 01 00:00:00 TRACK 08 AUDIO TITLE "Run For Cover" PERFORMER "Bob Marley & The Wailers" INDEX 00 02:32:48FILE "Bob Marley & The Wailers - Trench Town Rising- The Lee Perry Sessions (Disc 2) (2012) [FLAC]\08 - Run For Cover.wav" WAVE INDEX 01 00:00:00 TRACK 09 AUDIO TITLE "Man To Man" PERFORMER "Bob Marley & The Wailers" INDEX 00 03:13:25FILE "Bob Marley & The Wailers - Trench Town Rising- The Lee Perry Sessions (Disc 2) (2012) [FLAC]\09 - Man To Man.wav" WAVE INDEX 01 00:00:00 TRACK 10 AUDIO TITLE "Chances Are" PERFORMER "Bob Marley & The Wailers" INDEX 00 03:33:13FILE "Bob Marley & The Wailers - Trench Town Rising- The Lee Perry Sessions (Disc 2) (2012) [FLAC]\10 - Chances Are.wav" WAVE INDEX 01 00:00:00 TRACK 11 AUDIO TITLE "Hammer" PERFORMER "Bob Marley & The Wailers" INDEX 00 03:14:41FILE "Bob Marley & The Wailers - Trench Town Rising- The Lee Perry Sessions (Disc 2) (2012) [FLAC]\11 - Hammer.wav" WAVE INDEX 01 00:00:00 TRACK 12 AUDIO TITLE "How Many Times" PERFORMER "Bob Marley & The Wailers" INDEX 00 02:52:46FILE "Bob Marley & The Wailers - Trench Town Rising- The Lee Perry Sessions (Disc 2) (2012) [FLAC]\12 - How Many Times.wav" WAVE INDEX 01 00:00:00 TRACK 13 AUDIO TITLE "There She Goes" PERFORMER "Bob Marley & The Wailers" INDEX 00 02:21:62FILE "Bob Marley & The Wailers - Trench Town Rising- The Lee Perry Sessions (Disc 2) (2012) [FLAC]\13 - There She Goes.wav" WAVE INDEX 01 00:00:00 TRACK 14 AUDIO TITLE "Touch Me" PERFORMER "Bob Marley & The Wailers" INDEX 00 02:31:57FILE "Bob Marley & The Wailers - Trench Town Rising- The Lee Perry Sessions (Disc 2) (2012) [FLAC]\14 - Touch Me.wav" WAVE INDEX 01 00:00:00 TRACK 15 AUDIO TITLE "Treat Your Right" PERFORMER "Bob Marley & The Wailers" INDEX 00 03:06:31FILE "Bob Marley & The Wailers - Trench Town Rising- The Lee Perry Sessions (Disc 2) (2012) [FLAC]\15 - Treat Your Right.wav" WAVE INDEX 01 00:00:00 TRACK 16 AUDIO TITLE "You Can't Do That To Me" PERFORMER "Bob Marley & The Wailers" INDEX 00 02:09:14FILE "Bob Marley & The Wailers - Trench Town Rising- The Lee Perry Sessions (Disc 2) (2012) [FLAC]\16 - You Can't Do That To Me.wav" WAVE INDEX 01 00:00:00 TRACK 17 AUDIO TITLE "Soul Shakedown Party" PERFORMER "Bob Marley & The Wailers" INDEX 00 02:50:34FILE "Bob Marley & The Wailers - Trench Town Rising- The Lee Perry Sessions (Disc 2) (2012) [FLAC]\17 - Soul Shakedown Party.wav" WAVE INDEX 01 00:00:00 TRACK 18 AUDIO TITLE "Stop The Train" PERFORMER "Bob Marley & The Wailers" INDEX 00 03:09:57FILE "Bob Marley & The Wailers - Trench Town Rising- The Lee Perry Sessions (Disc 2) (2012) [FLAC]\18 - Stop The Train.wav" WAVE INDEX 01 00:00:00 TRACK 19 AUDIO TITLE "Caution" PERFORMER "Bob Marley & The Wailers" INDEX 00 02:22:23FILE "Bob Marley & The Wailers - Trench Town Rising- The Lee Perry Sessions (Disc 2) (2012) [FLAC]\19 - Caution.wav" WAVE INDEX 01 00:00:00 TRACK 20 AUDIO TITLE "Soul Captives" PERFORMER "Bob Marley & The Wailers" INDEX 00 02:46:32FILE "Bob Marley & The Wailers - Trench Town Rising- The Lee Perry Sessions (Disc 2) (2012) [FLAC]\20 - Soul Captives.wav" WAVE INDEX 01 00:00:00 TRACK 21 AUDIO TITLE "Can't You See" PERFORMER "Bob Marley & The Wailers" INDEX 00 02:05:49FILE "Bob Marley & The Wailers - Trench Town Rising- The Lee Perry Sessions (Disc 2) (2012) [FLAC]\21 - Can't You See.wav" WAVE INDEX 01 00:00:00 TRACK 22 AUDIO TITLE "Soon Come" PERFORMER "Bob Marley & The Wailers" INDEX 00 02:46:19FILE "Bob Marley & The Wailers - Trench Town Rising- The Lee Perry Sessions (Disc 2) (2012) [FLAC]\22 - Soon Come.wav" WAVE INDEX 01 00:00:00 TRACK 23 AUDIO TITLE "Cheer Up" PERFORMER "Bob Marley & The Wailers" INDEX 00 02:18:13FILE "Bob Marley & The Wailers - Trench Town Rising- The Lee Perry Sessions (Disc 2) (2012) [FLAC]\23 - Cheer Up.wav" WAVE INDEX 01 00:00:00 TRACK 24 AUDIO TITLE "Back Out" PERFORMER "Bob Marley & The Wailers" INDEX 00 02:05:23FILE "Bob Marley & The Wailers - Trench Town Rising- The Lee Perry Sessions (Disc 2) (2012) [FLAC]\24 - Back Out.wav" WAVE INDEX 01 00:00:00 TRACK 25 AUDIO TITLE "Do It Twice" PERFORMER "Bob Marley & The Wailers" INDEX 00 02:15:25FILE "Bob Marley & The Wailers - Trench Town Rising- The Lee Perry Sessions (Disc 2) (2012) [FLAC]\25 - Do It Twice.wav" WAVE INDEX 01 00:00:00 TRACK 26 AUDIO TITLE "Go Tell It On The Mountain" PERFORMER "Bob Marley & The Wailers" INDEX 00 02:47:48FILE "Bob Marley & The Wailers - Trench Town Rising- The Lee Perry Sessions (Disc 2) (2012) [FLAC]\26 - Go Tell It On The Mountain.wav" WAVE INDEX 01 00:00:00
The Lee Perry sessions are esteemed to be absolute Reggae classics. Lee Perry's productions with Bob Marley are considered to be defining moments in the evolution of Reggae and critical to introducing the artist to an international audience, which resulted in Bob Marley becoming the most widely known and revered performer of Reggae music. In turn Bob Marley helped spread both Jamaican music and the Rastafari movement to a worldwide audience.

This double album collection contains the cream of the crop of the Lee “Scratch” Perry sessions, which originally appeared on the producer’s Upsetter Records label, with an additional 10 bonus tracks produced by Leslie Kong for his Beverly Records label, prior to the band's involvement with Lee Perry.


Трекер:  [ 27-Июн-2012 16:15 ]

  

Скачать .torrent

Размер .torrent файла 16 KB


Размер: 632 MB
Хэш (hash) релиза: 9ca200b40b923a16d0e098911f46b7a03665b4a7

Еще никто не оставлял запись к записи скачать торрент Bob Marley & The Wailers - Trench Town Rising: The Lee Perry Sessions - 2012, FLAC . Будь первым!

!Обратная связь