Reality-T
血观音 The Bold the Corrupt and the Beautiful 2017 BD720P X264 AAC Mandari...

Скачать через торрент музыку VA - Reggae Vibes - 1998 , FLAC бесплатно без регистрации torrent

Статистика раздачи
Размер:  468 MB   |    Зарегистрирован:  5 лет 9 месяцев   |    .torrent скачан:  62 раза   |   
Раздают:  1  
   
загрузка...
 
Автор Сообщение

_N_

avatar _N_


Reggae Vibes

Жанр: Reggae
Страна-производитель диска: EU
Год издания: 1998
Издатель (лейбл): Zyx Music
Номер по каталогу: BRCD 0353/MK 1507
Аудиокодек: FLAC (*.flac)
Тип рипа: image+.cue
Битрейт аудио: lossless
Продолжительность: 1:08:48
Источник (релизер): Audio CD
Наличие сканов в содержимом раздачи: да

Треклист:

01. Mighty V./I Can See [0:05:31.74]
02. ONB/I'll Be There [0:03:34.58]
03. Raggamuffin Soldiers/Can't 4get [0:07:27.76]
04. Beat System/Reggae Night [0:05:14.49]
05. Culture/Hey Mr.Music [0:04:19.10]
06. The Dreadlocks/No Woman No Cry [0:05:12.98]
07. Jammin Band/Games People Play [0:03:10.86]
08. Good Idea/Always [0:04:23.26]
09. J.Fogerty/Down On The Corner [0:04:24.41]
10. Girlie Style/Back For Good [0:03:17.12]
11. Reality/Wanna Get Busy [0:03:49.93]
12. Raggamuffin Soldiers/Raggafaction [0:04:17.40]
13. Mangawa/Fifth Colour Man [0:04:00.82]
14. Warm Up/Take Me Up [0:05:41.50]
15. Einfach So!/Summer Holiday [0:04:22.33]
  
Exact Audio Copy V0.99 prebeta 5 from 4. May 2009

EAC extraction logfile from 31. May 2012, 13:38

Various / Reggae Vibes

Used drive : HL-DT-STDVDRAM GSA-T50N Adapter: 1 ID: 0

Read mode : SecureUtilize accurate stream : YesDefeat audio cache : YesMake use of C2 pointers : No

Read offset correction : 667Overread into Lead-In and Lead-Out : NoFill up missing offset samples with silence : YesDelete leading and trailing silent blocks : NoNull samples used in CRC calculations : YesUsed interface : Native Win32 interface for Win NT & 2000

Used output format : Internal WAV RoutinesSample format : 44.100 Hz; 16 Bit; Stereo

TOC of the extracted CD

Track | Start | Length | Start sector | End sector --------------------------------------------------------- 1 | 0:01.00 | 5:31.56 | 75 | 24955 2 | 5:32.56 | 3:34.44 | 24956 | 41049 3 | 9:07.25 | 7:27.57 | 41050 | 74631 4 | 16:35.07 | 5:14.37 | 74632 | 98218 5 | 21:49.44 | 4:19.08 | 98219 | 117651 6 | 26:08.52 | 5:12.74 | 117652 | 141125 7 | 31:21.51 | 3:10.65 | 141126 | 155440 8 | 34:32.41 | 4:23.20 | 155441 | 175185 9 | 38:55.61 | 4:24.31 | 175186 | 195016 10 | 43:20.17 | 3:17.09 | 195017 | 209800 11 | 46:37.26 | 3:49.70 | 209801 | 227045 12 | 50:27.21 | 4:17.30 | 227046 | 246350 13 | 54:44.51 | 4:00.62 | 246351 | 264412 14 | 58:45.38 | 5:41.38 | 264413 | 290025 15 | 64:27.01 | 4:22.25 | 290026 | 309700

Range status and errors

Selected range

Filename C:\Users\Fancy\Desktop\Various - Reggae Vibes.wav

Peak level 100.0 % Range quality 100.0 % Test CRC D5FD5EAB Copy CRC D5FD5EAB Copy OK

No errors occurred

AccurateRip summary

Track 1 not present in databaseTrack 2 not present in databaseTrack 3 not present in databaseTrack 4 not present in databaseTrack 5 not present in databaseTrack 6 not present in databaseTrack 7 not present in databaseTrack 8 not present in databaseTrack 9 not present in databaseTrack 10 not present in databaseTrack 11 not present in databaseTrack 12 not present in databaseTrack 13 not present in databaseTrack 14 not present in databaseTrack 15 not present in database

None of the tracks are present in the AccurateRip database

End of status report
  
REM GENRE ReggaeREM DATE 1998REM DISCID EC10200FREM COMMENT "ExactAudioCopy v0.99pb5"PERFORMER "Various"TITLE "Reggae Vibes"FILE "Various - Reggae Vibes.flac" WAVE TRACK 01 AUDIO TITLE "I Can See" PERFORMER "Mighty V." FLAGS DCP INDEX 00 00:00:00 INDEX 01 00:01:00 TRACK 02 AUDIO TITLE "I'll Be There" PERFORMER "ONB" FLAGS DCP INDEX 00 05:30:21 INDEX 01 05:32:56 TRACK 03 AUDIO TITLE "Can't 4get" PERFORMER "Raggamuffin Soldiers" FLAGS DCP INDEX 00 09:04:65 INDEX 01 09:07:25 TRACK 04 AUDIO TITLE "Reggae Night" PERFORMER "Beat System" FLAGS DCP INDEX 00 16:32:47 INDEX 01 16:35:07 TRACK 05 AUDIO TITLE "Hey Mr.Music" PERFORMER "Culture" FLAGS DCP INDEX 00 21:47:09 INDEX 01 21:49:44 TRACK 06 AUDIO TITLE "No Woman No Cry" PERFORMER "The Dreadlocks" FLAGS DCP INDEX 00 26:06:17 INDEX 01 26:08:52 TRACK 07 AUDIO TITLE "Games People Play" PERFORMER "Jammin Band" FLAGS DCP INDEX 00 31:19:16 INDEX 01 31:21:51 TRACK 08 AUDIO TITLE "Always" PERFORMER "Good Idea" FLAGS DCP INDEX 00 34:30:06 INDEX 01 34:32:41 TRACK 09 AUDIO TITLE "Down On The Corner" PERFORMER "J.Fogerty" FLAGS DCP INDEX 00 38:53:26 INDEX 01 38:55:61 TRACK 10 AUDIO TITLE "Back For Good" PERFORMER "Girlie Style" FLAGS DCP INDEX 00 43:17:57 INDEX 01 43:20:17 TRACK 11 AUDIO TITLE "Wanna Get Busy" PERFORMER "Reality" FLAGS DCP INDEX 00 46:34:66 INDEX 01 46:37:26 TRACK 12 AUDIO TITLE "Raggafaction" PERFORMER "Raggamuffin Soldiers" FLAGS DCP INDEX 00 50:24:61 INDEX 01 50:27:21 TRACK 13 AUDIO TITLE "Fifth Colour Man" PERFORMER "Mangawa" FLAGS DCP INDEX 00 54:42:16 INDEX 01 54:44:51 TRACK 14 AUDIO TITLE "Take Me Up" PERFORMER "Warm Up" FLAGS DCP INDEX 00 58:43:03 INDEX 01 58:45:38 TRACK 15 AUDIO TITLE "Summer Holiday" PERFORMER "Einfach So!" FLAGS DCP INDEX 00 64:24:41 INDEX 01 64:27:01


Трекер:  [ 27-Июн-2012 16:15 ]

  

Скачать .torrent

Размер .torrent файла 19 KB


Размер: 468 MB
Хэш (hash) релиза: 837eafef3b9255264fa1c3d9122b308c7ce6dc59

Еще никто не оставлял запись к записи скачать торрент VA - Reggae Vibes - 1998 , FLAC . Будь первым!

!Обратная связь