Comedy Movies | Eps6 Naked and Afraid - Season 8 (2017) | Movies 2015

Скачать через торрент музыку Los Umbrellos - Flamenco Funk - 1998, FLAC бесплатно без регистрации torrent

Статистика раздачи
Размер:  304 MB   |    Зарегистрирован:  6 лет 1 месяц   |    .torrent скачан:  68 раз   |   
Раздают:  1  
   
загрузка...
 
Автор Сообщение

_N_

avatar _N_


Los Umbrellos / Flamenco Funk

Жанр: pop/dance, Electronic, hip-hop, latin
Страна-производитель диска: USA
Год издания: 1998
Издатель (лейбл): Flex records
Номер по каталогу: 7243 8 45450 2 4
Страна: Denmark
Аудиокодек: FLAC (*.flac)
Тип рипа: image+.cue
Битрейт аудио: lossless
Продолжительность: 41:12
Источник (релизер): CD
Наличие сканов в содержимом раздачи: да
Треклист:
01 Sweep
02 Easy Come, Easy Go
03 No Tengo Dinero
04 Road to Carlos
05 Drive
06 Road to Carlos
07 Running
08 Gigolo
09 Obsession
10 Little Locolito
  
Exact Audio Copy V1.0 beta 2 from 29. April 2011

Отчёт EAC об извлечении, выполненном 22. мая 2012, 15:04

Los Umbrellos / Flamenko Funk

Дисковод: Optiarc DVD RW AD-7260S Adapter: 0 ID: 1

Режим чтения : ДостоверностьИспользование точного потока : ДаОтключение кэша аудио : ДаИспользование указателей C2 : Нет

Коррекция смещения при чтении : 48Способность читать области Lead-in и Lead-out : НетЗаполнение пропущенных сэмплов тишиной : ДаУдаление блоков с тишиной в начале и конце : НетПри вычислениях CRC использовались нулевые сэмплы : ДаИнтерфейс : Встроенный Win32-интерфейс для Win NT/2000

Выходной формат : Пользовательский кодировщикВыбранный битрейт : 128 kBit/sКачество : ВысокийДобавление ID3-тега : НетУтилита сжатия : C:\Program Files\Exact Audio Copy\FLAC\FLAC.EXEДополнительные параметры : -6 -V -T "ARTIST=%artist%" -T "TITLE=%title%" -T "ALBUM=%albumtitle%" -T "DATE=%year%" -T "TRACKNUMBER=%tracknr%" -T "GENRE=%genre%" -T "COMMENT=%comment%" -T "BAND=%albuminterpret%" -T "COMPOSER=%composer%" %haslyrics%--tag-from-

TOC извлечённого CD

Трек | Старт | Длительность | Начальный сектор | Конечный сектор --------------------------------------------------------------------- 1 | 0:00.00 | 3:05.15 | 0 | 13889 2 | 3:05.15 | 3:46.00 | 13890 | 30839 3 | 6:51.15 | 3:34.00 | 30840 | 46889 4 | 10:25.15 | 4:17.50 | 46890 | 66214 5 | 14:42.65 | 3:44.10 | 66215 | 83024 6 | 18:27.00 | 4:30.07 | 83025 | 103281 7 | 22:57.07 | 3:46.38 | 103282 | 120269 8 | 26:43.45 | 2:53.00 | 120270 | 133244 9 | 29:36.45 | 4:55.10 | 133245 | 155379 10 | 34:31.55 | 6:49.70 | 155380 | 186124

Характеристики диапазона извлечения и сообщения об ошибках

Выбранный диапазон

Имя файла D:\FLAC\Los Umbrellos - Flamenko Funk - 1998.wav

Пиковый уровень 98.8 % Скорость извлечения 3.8 X Качество диапазона 100.0 % CRC теста 6862729B CRC копии 6862729B Копирование... OK

Ошибок не произошло

Конец отчёта

==== Контрольная сумма отчёта BFCF310815E84F939C407D3CB2B4C7CE4DA827DA2F6E2DA193C4CC55901F8E84 ====


Трекер:  [ 30-Май-2012 11:56 ]

  

Скачать .torrent

Размер .torrent файла 13 KB


Размер: 304 MB
Хэш (hash) релиза: 44fcc45a98b8ac5b7399e3548f64da54fa374e96

Еще никто не оставлял запись к записи скачать торрент Los Umbrellos - Flamenco Funk - 1998, FLAC . Будь первым!

!Обратная связь