Episodes | Bigg Boss (2018) Malayalam - EP 5 - 720p - HDTV - x264 - AAC - MovCr | 1 Night 2 Days S3 Ep.208

Скачать через торрент музыку Papa Dee - The Journey - 1996, FLAC бесплатно без регистрации torrent

Статистика раздачи
Размер:  297 MB   |    Зарегистрирован:  6 лет 1 месяц   |    .torrent скачан:  78 раз   |   
Раздают:  1  
   
загрузка...
 
Автор Сообщение

_N_

avatar _N_


Papa Dee / The Journey

Жанр: Ragga, Hip-Hop, Dancehall
Страна-производитель диска: Germany
Год издания: 1996
Издатель (лейбл): Warner Music Sweden
Номер по каталогу: 0630-14147-2
Страна: Sweden
Аудиокодек: FLAC (*.flac)
Тип рипа: image+.cue
Битрейт аудио: lossless
Продолжительность: 43:31
Источник (релизер): CD
Наличие сканов в содержимом раздачи: да
Треклист:
01 The Journey
02 I Surrender
03 The First Cut Is The Deepest
04 Angel
05 Feeding You Lies
06 The Tide Is High
07 Turn It Up
08 Just Let The Music
09 Without You
10 Rum Jam Style
11 Deadline
  
Exact Audio Copy V1.0 beta 2 from 29. April 2011

Отчёт EAC об извлечении, выполненном 21. мая 2012, 16:25

Papa Dee / The Journey

Дисковод: Optiarc DVD RW AD-7260S Adapter: 0 ID: 1

Режим чтения : ДостоверностьИспользование точного потока : ДаОтключение кэша аудио : ДаИспользование указателей C2 : Нет

Коррекция смещения при чтении : 48Способность читать области Lead-in и Lead-out : НетЗаполнение пропущенных сэмплов тишиной : ДаУдаление блоков с тишиной в начале и конце : НетПри вычислениях CRC использовались нулевые сэмплы : ДаИнтерфейс : Встроенный Win32-интерфейс для Win NT/2000

Выходной формат : Пользовательский кодировщикВыбранный битрейт : 128 kBit/sКачество : ВысокийДобавление ID3-тега : НетУтилита сжатия : C:\Program Files\Exact Audio Copy\FLAC\FLAC.EXEДополнительные параметры : -6 -V -T "ARTIST=%artist%" -T "TITLE=%title%" -T "ALBUM=%albumtitle%" -T "DATE=%year%" -T "TRACKNUMBER=%tracknr%" -T "GENRE=%genre%" -T "COMMENT=%comment%" -T "BAND=%albuminterpret%" -T "COMPOSER=%composer%" %haslyrics%--tag-from-

TOC извлечённого CD

Трек | Старт | Длительность | Начальный сектор | Конечный сектор --------------------------------------------------------------------- 1 | 0:00.00 | 4:04.37 | 0 | 18336 2 | 4:04.37 | 4:14.35 | 18337 | 37421 3 | 8:18.72 | 3:48.55 | 37422 | 54576 4 | 12:07.52 | 3:53.13 | 54577 | 72064 5 | 16:00.65 | 4:09.70 | 72065 | 90809 6 | 20:10.60 | 3:42.72 | 90810 | 107531 7 | 23:53.57 | 3:00.35 | 107532 | 121066 8 | 26:54.17 | 3:55.40 | 121067 | 138731 9 | 30:49.57 | 3:40.23 | 138732 | 155254 10 | 34:30.05 | 4:02.50 | 155255 | 173454 11 | 38:32.55 | 3:58.70 | 173455 | 191374

Характеристики диапазона извлечения и сообщения об ошибках

Выбранный диапазон

Имя файла D:\FLAC\Papa Dee - The Journey - 1996.wav

Пиковый уровень 100.0 % Скорость извлечения 3.6 X Качество диапазона 100.0 % CRC теста 2E01C36E CRC копии 2E01C36E Копирование... OK

Ошибок не произошло

Конец отчёта

==== Контрольная сумма отчёта 543A0DB99279641CF7C2CBDB02EE6DA4E2EA843FEBF0BAD99692C1B8BDB4EDE4 ====


Трекер:  [ 30-Май-2012 11:57 ]

  

Скачать .torrent

Размер .torrent файла 12 KB


Размер: 297 MB
Хэш (hash) релиза: d9a8516c94e237bb6c74fe3fd4ac6a7ec11ea7eb

Еще никто не оставлял запись к записи скачать торрент Papa Dee - The Journey - 1996, FLAC . Будь первым!

!Обратная связь