Shanda's River | Kid Gang | 生產應用

Скачать через торрент музыку Jackie Mittoo - In London - 1967, FLAC бесплатно без регистрации torrent

Статистика раздачи
Размер:  188 MB   |    Зарегистрирован:  6 лет 2 месяца   |    .torrent скачан:  80 раз   |   
Раздают:  1  
   
загрузка...
 
Автор Сообщение

Galfimbul

avatar Galfimbul


Jackie Mittoo / In London

Жанр: Rocksteady Reggae Pop Ska
Страна-производитель диска: US
Издатель (лейбл): Coxsone's Music City
Номер по каталогу: 8009
Страна: JAMAICA
Аудиокодек: FLAC (*.flac)
Тип рипа: tracks+.cue
Битрейт аудио: lossless
Продолжительность: 40m
Источник (релизер): wata
Наличие сканов в содержимом раздачи: нет
Треклист:

Ram Jam
Winchester Cathedral
Who Done It
Midnight Special
How Soon
Soul Finger
Something Stupid
Whiter Shade Of Pale
Massachusetts
Ain't That Loving You
Kicksie
Darker Shade Of Black
Choice Of Music*
Hello Studio One*

Yet another release from Jackie Mittoo, this time a 1967 album from Studio One, his second solo album. 14 tracks in all, two are bonus tracks marked * The list of tracks defers in that of the original album released to coincide with the Soul Vendors London Tour of 1967 (some of the tracks were recorded in London).

Записано в 67м во время поездки Миту в Англию.
  
Exact Audio Copy V0.99 prebeta 3 from 28. July 2007

EAC extraction logfile from 11. December 2009, 11:09

Jackie Mittoo / In London

Used drive : PLEXTOR DVDR PX-850SA Adapter: 3 ID: 1

Read mode : SecureUtilize accurate stream : YesDefeat audio cache : YesMake use of C2 pointers : No

Read offset correction : 6Overread into Lead-In and Lead-Out : NoFill up missing offset samples with silence : YesDelete leading and trailing silent blocks : NoNull samples used in CRC calculations : YesUsed interface : Native Win32 interface for Win NT & 2000Gap handling : Appended to previous track

Used output format : Internal WAV RoutinesSample format : 44.100 Hz; 16 Bit; Stereo

TOC of the extracted CD

Track | Start | Length | Start sector | End sector --------------------------------------------------------- 1 | 0:00.30 | 2:42.73 | 30 | 12252 2 | 2:43.28 | 2:57.40 | 12253 | 25567 3 | 5:40.68 | 2:43.18 | 25568 | 37810 4 | 8:24.11 | 2:36.10 | 37811 | 49520 5 | 11:00.21 | 3:35.10 | 49521 | 65655 6 | 14:35.31 | 2:14.01 | 65656 | 75706 7 | 16:49.32 | 3:36.21 | 75707 | 91927 8 | 20:25.53 | 3:06.33 | 91928 | 105910 9 | 23:32.11 | 2:26.32 | 105911 | 116892 10 | 25:58.43 | 2:39.57 | 116893 | 128874 11 | 28:38.25 | 2:51.26 | 128875 | 141725 12 | 31:29.51 | 3:17.24 | 141726 | 156524 13 | 34:47.00 | 3:11.55 | 156525 | 170904 14 | 37:58.55 | 2:22.67 | 170905 | 181621

Track 1

Filename K:\000 what cd bts 000\say what 003\Jackie Mittoo - In London\01-Jackie Mittoo-Ram Jam.wav

Pre-gap length 0:00:02.40

Peak level 99.1 % Track quality 100.0 % Test CRC C6C8A0D4 Copy CRC C6C8A0D4 Copy OK

Track 2

Filename K:\000 what cd bts 000\say what 003\Jackie Mittoo - In London\02-Jackie Mittoo-Winchester Cathedral.wav

Peak level 100.0 % Track quality 100.0 % Test CRC 3FE79B05 Copy CRC 3FE79B05 Copy OK

Track 3

Filename K:\000 what cd bts 000\say what 003\Jackie Mittoo - In London\03-Jackie Mittoo-Who Done It.wav

Peak level 97.5 % Track quality 100.0 % Test CRC 244C74BA Copy CRC 244C74BA Copy OK

Track 4

Filename K:\000 what cd bts 000\say what 003\Jackie Mittoo - In London\04-Jackie Mittoo-Midnight Special.wav

Peak level 96.6 % Track quality 100.0 % Test CRC CFDAC85D Copy CRC CFDAC85D Copy OK

Track 5

Filename K:\000 what cd bts 000\say what 003\Jackie Mittoo - In London\05-Jackie Mittoo-How Soon.wav

Peak level 96.7 % Track quality 100.0 % Test CRC 98A2DCF7 Copy CRC 98A2DCF7 Copy OK

Track 6

Filename K:\000 what cd bts 000\say what 003\Jackie Mittoo - In London\06-Jackie Mittoo-Soul Finger.wav

Peak level 100.0 % Track quality 100.0 % Test CRC F1F17FA2 Copy CRC F1F17FA2 Copy OK

Track 7

Filename K:\000 what cd bts 000\say what 003\Jackie Mittoo - In London\07-Jackie Mittoo-Something Stupid.wav

Peak level 100.0 % Track quality 100.0 % Test CRC 3B205634 Copy CRC 3B205634 Copy OK

Track 8

Filename K:\000 what cd bts 000\say what 003\Jackie Mittoo - In London\08-Jackie Mittoo-Whiter Shade Of Pale.wav

Peak level 91.9 % Track quality 100.0 % Test CRC 4A4D8F88 Copy CRC 4A4D8F88 Copy OK

Track 9

Filename K:\000 what cd bts 000\say what 003\Jackie Mittoo - In London\09-Jackie Mittoo-Massachusetts.wav

Peak level 100.0 % Track quality 99.9 % Test CRC AA9DC08B Copy CRC AA9DC08B Copy OK

Track 10

Filename K:\000 what cd bts 000\say what 003\Jackie Mittoo - In London\10-Jackie Mittoo-Ain't That Loving You.wav

Peak level 92.3 % Track quality 100.0 % Test CRC C1B3B1FB Copy CRC C1B3B1FB Copy OK

Track 11

Filename K:\000 what cd bts 000\say what 003\Jackie Mittoo - In London\11-Jackie Mittoo-Kicksie.wav

Peak level 100.0 % Track quality 99.9 % Test CRC ED0EFB17 Copy CRC ED0EFB17 Copy OK

Track 12

Filename K:\000 what cd bts 000\say what 003\Jackie Mittoo - In London\12-Jackie Mittoo-Darker Shade Of Black.wav

Peak level 100.0 % Track quality 100.0 % Test CRC 26BEA23A Copy CRC 26BEA23A Copy OK

Track 13

Filename K:\000 what cd bts 000\say what 003\Jackie Mittoo - In London\13-Jackie Mittoo-Choice Of Music.wav

Peak level 92.1 % Track quality 100.0 % Test CRC D1BA0AEF Copy CRC D1BA0AEF Copy OK

Track 14

Filename K:\000 what cd bts 000\say what 003\Jackie Mittoo - In London\14-Jackie Mittoo-Hello Studio One.wav

Peak level 95.7 % Track quality 100.0 % Test CRC 2C78E8F7 Copy CRC 2C78E8F7 Copy OK

No errors occurred

End of status report
  
FILE "01-Jackie Mittoo-Ram Jam.wav" WAVE TRACK 01 AUDIO INDEX 01 00:00:00FILE "02-Jackie Mittoo-Winchester Cathedral.wav" WAVE TRACK 02 AUDIO INDEX 01 00:00:00FILE "03-Jackie Mittoo-Who Done It.wav" WAVE TRACK 03 AUDIO INDEX 01 00:00:00FILE "04-Jackie Mittoo-Midnight Special.wav" WAVE TRACK 04 AUDIO INDEX 01 00:00:00FILE "05-Jackie Mittoo-How Soon.wav" WAVE TRACK 05 AUDIO INDEX 01 00:00:00FILE "06-Jackie Mittoo-Soul Finger.wav" WAVE TRACK 06 AUDIO INDEX 01 00:00:00FILE "07-Jackie Mittoo-Something Stupid.wav" WAVE TRACK 07 AUDIO INDEX 01 00:00:00FILE "08-Jackie Mittoo-Whiter Shade Of Pale.wav" WAVE TRACK 08 AUDIO INDEX 01 00:00:00FILE "09-Jackie Mittoo-Massachusetts.wav" WAVE TRACK 09 AUDIO INDEX 01 00:00:00FILE "10-Jackie Mittoo-Ain't That Loving You.wav" WAVE TRACK 10 AUDIO INDEX 01 00:00:00FILE "11-Jackie Mittoo-Kicksie.wav" WAVE TRACK 11 AUDIO INDEX 01 00:00:00FILE "12-Jackie Mittoo-Darker Shade Of Black.wav" WAVE TRACK 12 AUDIO INDEX 01 00:00:00FILE "13-Jackie Mittoo-Choice Of Music.wav" WAVE TRACK 13 AUDIO INDEX 01 00:00:00FILE "14-Jackie Mittoo-Hello Studio One.wav" WAVE TRACK 14 AUDIO INDEX 01 00:00:00


Трекер:  [ 16-Май-2012 21:56 ]

  

Скачать .torrent

Размер .torrent файла 16 KB


Размер: 188 MB
Хэш (hash) релиза: 5dbefc2332b0773d2a700a1a4ed326916110d37e

Еще никто не оставлял запись к записи скачать торрент Jackie Mittoo - In London - 1967, FLAC . Будь первым!

!Обратная связь