Familienfilm | Occultic;nine (dub) | Andy Samberg

Скачать через торрент музыку The Heptones, The Now Generation - The Heptones - Meet The Now Generation - 2009\1972, FLAC бесплатно без регистрации torrent

Статистика раздачи
Размер:  244 MB   |    Зарегистрирован:  6 лет 2 месяца   |    .torrent скачан:  63 раза   |   
Раздают:  1  
   
загрузка...
 
Автор Сообщение

Galfimbul

avatar Galfimbul


The Heptones, The Now Generation / The Heptones - Meet The Now Generation

Жанр: rocksteady, reggae, dub
Страна-производитель диска: US
Год издания: 2009\1972
Издатель (лейбл): VP Records
Номер по каталогу: VP 4152
Страна: jamaica
Аудиокодек: FLAC (*.flac)
Тип рипа: tracks+.cue
Битрейт аудио: lossless
Продолжительность: 35m
Источник (релизер): wata
Наличие сканов в содержимом раздачи: нет
Треклист:

1 Hypocrite
2 Save The Last Dance
3 Our Day Will Come
4 Freedom To The People
5 Freedom Train
Featuring – U-Roy
6 Every Day And Every Night
7 Love Has Many Faces
8 Be The One
9 The Road Is Rough
Featuring – Joe Gibbs, Now Generation, The
10 The Magnificent Heptones (3 In 1)
11 George Headley Medley
Featuring – Dennis Alcapone
12 I've Got A Feeling

аналоговый олдскул.
  
Exact Audio Copy V0.99 prebeta 3 from 28. July 2007

EAC extraction logfile from 15. June 2009, 17:03

The Heptones / Meet The Now Generation

Used drive : TSSTcorpCDDVDW SN-S083B Adapter: 2 ID: 0

Read mode : SecureUtilize accurate stream : YesDefeat audio cache : YesMake use of C2 pointers : No

Read offset correction : 6Overread into Lead-In and Lead-Out : NoFill up missing offset samples with silence : YesDelete leading and trailing silent blocks : NoNull samples used in CRC calculations : YesUsed interface : Installed external ASPI interfaceGap handling : Appended to previous track

Used output format : User Defined EncoderSelected bitrate : 768 kBit/sQuality : HighAdd ID3 tag : NoCommand line compressor : C:\Program Files\Exact Audio Copy\FLAC\FLAC.EXEAdditional command line options : -8 -V -T "ARTIST=%a" -T "TITLE=%t" -T "ALBUM=%g" -T "DATE=%y" -T "TRACKNUMBER=%n" -T "TOTALTRACKS=%x" -T "GENRE=%m" -T "ALBUMARTIST=%v" -T "ALBUM ARTIST=%v" -T "COMMENT=EAC V0.99 prebeta 4, Secure Mode, Test & Copy, Accurat

TOC of the extracted CD

Track | Start | Length | Start sector | End sector --------------------------------------------------------- 1 | 0:00.00 | 3:04.42 | 0 | 13841 2 | 3:04.42 | 2:51.29 | 13842 | 26695 3 | 5:55.71 | 3:20.03 | 26696 | 41698 4 | 9:15.74 | 3:35.38 | 41699 | 57861 5 | 12:51.37 | 4:04.06 | 57862 | 76167 6 | 16:55.43 | 2:31.52 | 76168 | 87544 7 | 19:27.20 | 3:09.21 | 87545 | 101740 8 | 22:36.41 | 3:25.17 | 101741 | 117132 9 | 26:01.58 | 2:50.16 | 117133 | 129898 10 | 28:51.74 | 3:13.23 | 129899 | 144396 11 | 32:05.22 | 3:18.22 | 144397 | 159268 12 | 35:23.44 | 2:18.29 | 159269 | 169647

Track 1

Filename C:\Addis is killing my HDD\01 - Hypocrite.wav

Pre-gap length 0:00:02.00

Peak level 99.9 % Track quality 100.0 % Test CRC A6202E40 Copy CRC A6202E40 Track not present in AccurateRip database Copy OK

Track 2

Filename C:\Addis is killing my HDD\02 - Save The Last Dance.wav

Peak level 99.9 % Track quality 100.0 % Test CRC 89B02256 Copy CRC 89B02256 Track not present in AccurateRip database Copy OK

Track 3

Filename C:\Addis is killing my HDD\03 - Our Day Will Come.wav

Peak level 99.9 % Track quality 100.0 % Test CRC E27877C1 Copy CRC E27877C1 Track not present in AccurateRip database Copy OK

Track 4

Filename C:\Addis is killing my HDD\04 - Freedom To The People.wav

Peak level 99.9 % Track quality 99.9 % Test CRC 8BAA1BC3 Copy CRC 8BAA1BC3 Track not present in AccurateRip database Copy OK

Track 5

Filename C:\Addis is killing my HDD\05 - Freedom Train (Feat. U Roy).wav

Peak level 99.9 % Track quality 99.9 % Test CRC 22155E43 Copy CRC 22155E43 Track not present in AccurateRip database Copy OK

Track 6

Filename C:\Addis is killing my HDD\06 - Every Day And Every Night.wav

Peak level 99.9 % Track quality 100.0 % Test CRC F0EB871F Copy CRC F0EB871F Track not present in AccurateRip database Copy OK

Track 7

Filename C:\Addis is killing my HDD\07 - Love Has Many Faces.wav

Peak level 99.9 % Track quality 99.9 % Test CRC 57FF6B56 Copy CRC 57FF6B56 Track not present in AccurateRip database Copy OK

Track 8

Filename C:\Addis is killing my HDD\08 - Be The One.wav

Peak level 99.9 % Track quality 99.9 % Test CRC 1AE29180 Copy CRC 1AE29180 Track not present in AccurateRip database Copy OK

Track 9

Filename C:\Addis is killing my HDD\09 - The Road Is Rough (Feat. Joe Gibbs & Now Generation).wav

Peak level 99.9 % Track quality 100.0 % Test CRC C2FEB566 Copy CRC C2FEB566 Track not present in AccurateRip database Copy OK

Track 10

Filename C:\Addis is killing my HDD\10 - The Magnificent Heptones (3 In 1).wav

Peak level 99.9 % Track quality 100.0 % Test CRC 677106C4 Copy CRC 677106C4 Track not present in AccurateRip database Copy OK

Track 11

Filename C:\Addis is killing my HDD\11 - George Headley Medley (Feat. Dennis Alcapone).wav

Peak level 99.9 % Track quality 100.0 % Test CRC 0B9D8716 Copy CRC 0B9D8716 Track not present in AccurateRip database Copy OK

Track 12

Filename C:\Addis is killing my HDD\12 - I've Got A Feeling.wav

Peak level 99.9 % Track quality 100.0 % Test CRC 06C099A5 Copy CRC 06C099A5 Track not present in AccurateRip database Copy OK

None of the tracks are present in the AccurateRip database

No errors occurred

End of status report
  
REM GENRE ReggaeREM DATE 1972REM DISCID A708D50CREM COMMENT "ExactAudioCopy v0.99pb3"PERFORMER "The Heptones"TITLE "Meet The Now Generation"FILE "01 - Hypocrite.wav" WAVE TRACK 01 AUDIO TITLE "Hypocrite" PERFORMER "The Heptones" INDEX 01 00:00:00FILE "02 - Save The Last Dance.wav" WAVE TRACK 02 AUDIO TITLE "Save The Last Dance" PERFORMER "The Heptones" INDEX 01 00:00:00FILE "03 - Our Day Will Come.wav" WAVE TRACK 03 AUDIO TITLE "Our Day Will Come" PERFORMER "The Heptones" INDEX 01 00:00:00FILE "04 - Freedom To The People.wav" WAVE TRACK 04 AUDIO TITLE "Freedom To The People" PERFORMER "The Heptones" INDEX 01 00:00:00FILE "05 - Freedom Train (Feat. U Roy).wav" WAVE TRACK 05 AUDIO TITLE "Freedom Train (Feat. U Roy)" PERFORMER "The Heptones" INDEX 01 00:00:00FILE "06 - Every Day And Every Night.wav" WAVE TRACK 06 AUDIO TITLE "Every Day And Every Night" PERFORMER "The Heptones" INDEX 01 00:00:00FILE "07 - Love Has Many Faces.wav" WAVE TRACK 07 AUDIO TITLE "Love Has Many Faces" PERFORMER "The Heptones" INDEX 01 00:00:00FILE "08 - Be The One.wav" WAVE TRACK 08 AUDIO TITLE "Be The One" PERFORMER "The Heptones" INDEX 01 00:00:00FILE "09 - The Road Is Rough (Feat. Joe Gibbs & Now Generation).wav" WAVE TRACK 09 AUDIO TITLE "The Road Is Rough (Feat. Joe Gibbs & Now Generation)" PERFORMER "The Heptones" INDEX 01 00:00:00FILE "10 - The Magnificent Heptones (3 In 1).wav" WAVE TRACK 10 AUDIO TITLE "The Magnificent Heptones (3 In 1)" PERFORMER "The Heptones" INDEX 01 00:00:00FILE "11 - George Headley Medley (Feat. Dennis Alcapone).wav" WAVE TRACK 11 AUDIO TITLE "George Headley Medley (Feat. Dennis Alcapone)" PERFORMER "The Heptones" INDEX 01 00:00:00FILE "12 - I've Got A Feeling.wav" WAVE TRACK 12 AUDIO TITLE "I've Got A Feeling" PERFORMER "The Heptones" INDEX 01 00:00:00


Трекер:  [ 16-Май-2012 21:56 ]

  

Скачать .torrent

Размер .torrent файла 20 KB


Размер: 244 MB
Хэш (hash) релиза: 739bc81b00af957986d29867e7aab20b5bbcf92a

Еще никто не оставлял запись к записи скачать торрент The Heptones, The Now Generation - The Heptones - Meet The Now Generation - 2009\1972, FLAC . Будь первым!

!Обратная связь