Farsi/Persian Star Wars 8 The Last Jedi 2017 720p New HDCam ChineseSub ver1.fa

Скачать через торрент музыку Dub Colossus - Rockers Meet Addis Uptown - 2011, бесплатно без регистрации torrent

Статистика раздачи
Размер:  173 MB   |    Зарегистрирован:  5 лет 10 месяцев   |    .torrent скачан:  56 раз   |   
Раздают:  1  
Автор Сообщение


avatar Galfimbul

Dub Colossus / Rockers Meet Addis Uptown

Жанр: Reggae, Dub
Страна-производитель диска: Ethiopia
Год издания: 2011
Издатель (лейбл): Real World Records
Номер по каталогу: RWEP 19
Страна: Ethiopia
Аудиокодек: FLAC (*.flac)
Тип рипа: image+.cue
Битрейт аудио: lossless
Продолжительность: 24:27
Источник (релизер): Свой
Наличие сканов в содержимом раздачи: нет

01 Dub Colossus — Uptown Top Ranking (Radio Edit)
02 Dub Colossus — Guragigna
03 Dub Colossus — Medina
04 Dub Colossus — Selemi
05 Dub Colossus — Uptown Top Ranking
xact Audio Copy V1.0 beta 3 from 29. August 2011

EAC extraction logfile from 13. May 2012, 23:10

Dub Colossus / Rockers Meet Addis Uptown

Used drive : HL-DT-STDVD-RAM GSA-H22N Adapter: 0 ID: 0

Read mode : SecureUtilize accurate stream : YesDefeat audio cache : NoMake use of C2 pointers : No

Read offset correction : 102Overread into Lead-In and Lead-Out : YesFill up missing offset samples with silence : YesDelete leading and trailing silent blocks : NoNull samples used in CRC calculations : YesUsed interface : Installed external ASPI interface

Used output format : User Defined EncoderSelected bitrate : 768 kBit/sQuality : HighAdd ID3 tag : NoCommand line compressor : C:\Program Files\Exact Audio Copy\FLAC\FLAC.EXEAdditional command line options : -6 -V -T "ARTIST=%artist%" -T "TITLE=%title%" -T "ALBUM=%albumtitle%" -T "DATE=%year%" -T "TRACKNUMBER=%tracknr%" -T "GENRE=%genre%" -T "COMMENT=%comment%" -T "BAND=%albuminterpret%" -T "ALBUMARTIST=%albuminterpret%" -T "COMPOSER=%composer%" %haslyrics%--tag-from-file=LYRICS="%lyricsfile%"%haslyrics% -T "DISCNUMBER=%cdnumber%" -T "TOTALDISCS=%totalcds%" -T "TOTALTRACKS=%numtracks%" %hascover%--picture="%coverfile%"%hascover% %source% -o %dest%

TOC of the extracted CD

Track | Start | Length | Start sector | End sector --------------------------------------------------------- 1 | 0:00.00 | 4:18.68 | 0 | 19417 2 | 4:18.68 | 5:14.36 | 19418 | 43003 3 | 9:33.29 | 3:08.10 | 43004 | 57113 4 | 12:41.39 | 6:45.06 | 57114 | 87494 5 | 19:26.45 | 5:02.21 | 87495 | 110165

Range status and errors

Selected range

Filename D:\jonas\muzika\savi\Dub Colossus - Rockers Meet Addis Uptown\Dub Colossus - Rockers Meet Addis Uptown.wav

Peak level 100.0 % Extraction speed 3.4 X Range quality 100.0 % Test CRC CC553BC4 Copy CRC CC553BC4 Copy OK

No errors occurred

AccurateRip summary

Track 1 not present in databaseTrack 2 not present in databaseTrack 3 not present in databaseTrack 4 not present in databaseTrack 5 not present in database

None of the tracks are present in the AccurateRip database

End of status report

==== Log checksum 08FCDF82C3FC5827E2D459208293C901D061D0939C1014552A69D7DEB8225719 ====
REM GENRE "Ethiopian Fusion"REM DATE 2010REM DISCID 3B05BC05REM COMMENT "ExactAudioCopy v1.0b3"PERFORMER "Dub Colossus"TITLE "Rockers Meet Addis Uptown"FILE "Dub Colossus - Rockers Meet Addis Uptown.flac" WAVE TRACK 01 AUDIO TITLE "Uptown Top Ranking [radio edit]" PERFORMER "Dub Colossus featuring vocals PJ Higgins, drums Nick Van Gelder and horns The..." ISRC GBWXC1000180 INDEX 01 00:00:00 TRACK 02 AUDIO TITLE "Guragigna" PERFORMER "Dub Colossus featuring drums Nick Van Gelder, bass Dr. Das, congas Toby Mills" ISRC GBWXC1000211 INDEX 00 04:15:68 INDEX 01 04:18:68 TRACK 03 AUDIO TITLE "Medina" PERFORMER "Dub Colossus" ISRC GBWXC1000212 INDEX 00 09:30:29 INDEX 01 09:33:29 TRACK 04 AUDIO TITLE "Selemi" PERFORMER "Dub Colossus featuring drums Nick Van Gelder, bass Dr. Das, congas Ramjac, ho..." ISRC GBWXC1000213 INDEX 00 12:38:39 INDEX 01 12:41:39 TRACK 05 AUDIO TITLE "Uptown Top Ranking [full mix]" PERFORMER "Dub Colossus featuring vocals PJ Higgins, drums Nick Van Gelder and horns The..." ISRC GBWXC1000214 INDEX 00 19:23:45 INDEX 01 19:26:45
When Nick Page) (aka Dubulah, a charter member of the legendary worldbeat ensemble Transglobal Underground), spent a summer in Addis Ababa, he quite unsurprisingly ended up in the studio with a revolving cast of local singers and instrumentalists. The result of that month-long experiment was this utterly entrancing album, a bubbling stew of reggae, dub, Azmari singing, traditional instruments, and rich horn charts (courtesy of the Horns of Negus). At times the musical fusion recalls some of Bill Laswell's work, especially the dark and dreamy arrangements he has written for his Ethiopian wife Gigi, and at other times the music swirls and dances in entirely unique and unexpected ways. "Shegye Shegitu," which primarily features piano, handclaps,and call-and-response vocals, is good but not spectacular; the one-drop extravaganza "Black Rose" (on which charming female vocals are accompanied by what sounds like a strummed dulcimer and are then quietly upstaged by a brief and jaw-dropping guitar solo) and "Yeka Sub City Rockers" (with its weird flute, trippy ambience and keening male vocals) are much more impressive, and for the most part the program holds up the high standard it sets
Robin Baynton Engineer
Marc Bessant Design
Winston Blissett Bass
Dub Colossus Audio Production
Paul Madden Engineer, Ride Cymbal
Skip McDonald Guitar
Bernard O'Neill Cymbals, Double Bass, Programming
Nick Page Photography
Ben Somers Sax (Tenor)
Andrew Sutton Executive Producer
York Tillyer Portraits

Трекер:  [ 16-Май-2012 21:57 ]


Скачать .torrent

Размер .torrent файла 14 KB

Размер: 173 MB
Хэш (hash) релиза: d3c2e16d4a20440123ce62a78295299e8e8cfa01

Еще никто не оставлял запись к записи скачать торрент Dub Colossus - Rockers Meet Addis Uptown - 2011, . Будь первым!

!Обратная связь