Cancelar | Программы для настройки и оптимизации ОС | 瓒崇悆瀹濊礉

Скачать через торрент музыку Ky-mani Marley - Milestone - 2004, бесплатно без регистрации torrent

Статистика раздачи
Размер:  374 MB   |    Зарегистрирован:  6 лет 2 месяца   |    .torrent скачан:  68 раз   |   
Раздают:  1  
   
загрузка...
 
Автор Сообщение

Galfimbul

avatar Galfimbul


Ky-mani Marley / Milestone

Жанр: Reggae
Страна-производитель диска: Austria
Год издания: 2004
Издатель (лейбл): Big Cat Records
Номер по каталогу: ABB 206
Страна: USA
Аудиокодек: FLAC (*.flac)
Тип рипа: image+.cue
Битрейт аудио: lossless
Продолжительность: 61:16
Источник (релизер): Свой диск
Наличие сканов в содержимом раздачи: нет
Треклист:
1 Rude Boy 3:42
2 Country Journey 4:30
3 Dear Dad 3:55
4 Return of a King 4:57
5 Emperor 4:38
6 Hey Love 4:27
7 Yesterday 4:00
8 Hi-Way 4:18
9 Tom Drunk 4:58
10 Your Love 4:52
11 Fell In Love 4:35
12 Warriors 4:06
13 Lord is My Shepherd 4:09
14 Country Journey (video)
15 Dear Dad (video)
16 Warriors (video)
  
Exact Audio Copy V1.0 beta 3 from 29. August 2011

EAC extraction logfile from 13. May 2012, 22:33

Ky-mani Marley / Milestone

Used drive : HL-DT-STDVD-RAM GSA-H22N Adapter: 0 ID: 0

Read mode : SecureUtilize accurate stream : YesDefeat audio cache : NoMake use of C2 pointers : No

Read offset correction : 102Overread into Lead-In and Lead-Out : YesFill up missing offset samples with silence : YesDelete leading and trailing silent blocks : NoNull samples used in CRC calculations : YesUsed interface : Installed external ASPI interface

Used output format : User Defined EncoderSelected bitrate : 768 kBit/sQuality : HighAdd ID3 tag : NoCommand line compressor : C:\Program Files\Exact Audio Copy\FLAC\FLAC.EXEAdditional command line options : -6 -V -T "ARTIST=%artist%" -T "TITLE=%title%" -T "ALBUM=%albumtitle%" -T "DATE=%year%" -T "TRACKNUMBER=%tracknr%" -T "GENRE=%genre%" -T "COMMENT=%comment%" -T "BAND=%albuminterpret%" -T "ALBUMARTIST=%albuminterpret%" -T "COMPOSER=%composer%" %haslyrics%--tag-from-file=LYRICS="%lyricsfile%"%haslyrics% -T "DISCNUMBER=%cdnumber%" -T "TOTALDISCS=%totalcds%" -T "TOTALTRACKS=%numtracks%" %hascover%--picture="%coverfile%"%hascover% %source% -o %dest%

TOC of the extracted CD

Track | Start | Length | Start sector | End sector --------------------------------------------------------- 1 | 0:00.00 | 3:42.22 | 0 | 16671 2 | 3:42.22 | 4:30.38 | 16672 | 36959 3 | 8:12.60 | 3:55.30 | 36960 | 54614 4 | 12:08.15 | 4:57.12 | 54615 | 76901 5 | 17:05.27 | 4:38.34 | 76902 | 97785 6 | 21:43.61 | 4:27.55 | 97786 | 117865 7 | 26:11.41 | 4:00.04 | 117866 | 135869 8 | 30:11.45 | 4:18.00 | 135870 | 155219 9 | 34:29.45 | 4:58.37 | 155220 | 177606 10 | 39:28.07 | 4:52.09 | 177607 | 199515 11 | 44:20.16 | 4:35.39 | 199516 | 220179 12 | 48:55.55 | 4:06.10 | 220180 | 238639 13 | 53:01.65 | 4:07.73 | 238640 | 257237 14 | 59:41.63 | 18:06.71 | 268638 | 350158

Range status and errors

Selected range

Filename D:\jonas\muzika\savi\Ky-mani Marley - Milestone\Ky-mani Marley - Milestone.wav

Peak level 100.0 % Extraction speed 4.4 X Range quality 100.0 % Test CRC A3C77755 Copy CRC A3C77755 Copy OK

No errors occurred

AccurateRip summary

Track 1 not present in databaseTrack 2 not present in databaseTrack 3 not present in databaseTrack 4 not present in databaseTrack 5 not present in databaseTrack 6 not present in databaseTrack 7 not present in databaseTrack 8 not present in databaseTrack 9 not present in databaseTrack 10 not present in databaseTrack 11 not present in databaseTrack 12 not present in databaseTrack 13 not present in database

None of the tracks are present in the AccurateRip database

End of status report

==== Log checksum BC6DF9DD8498E960818CA6FAA2E75C1BBE29C0899DC4CC5AA7AED4489909D35A ====
  
REM GENRE ReggaeREM DATE 2003REM DISCID B2123C0EREM COMMENT "ExactAudioCopy v1.0b3"PERFORMER "Ky-mani Marley"TITLE "Milestone"FILE "Ky-mani Marley - Milestone.flac" WAVE TRACK 01 AUDIO TITLE "Rude Boy" PERFORMER "Ky-mani Marley" ISRC GBAEN0300032 INDEX 01 00:00:00 TRACK 02 AUDIO TITLE "Country Journey" PERFORMER "Ky-mani Marley" ISRC GBAEN0300033 INDEX 00 03:41:39 INDEX 01 03:42:22 TRACK 03 AUDIO TITLE "Dear Dad" PERFORMER "Ky-mani Marley" ISRC GBAEN0300034 INDEX 00 08:12:02 INDEX 01 08:12:60 TRACK 04 AUDIO TITLE "Return of a King" PERFORMER "Ky-mani Marley" ISRC GBAEN0300035 INDEX 00 12:07:32 INDEX 01 12:08:15 TRACK 05 AUDIO TITLE "Emperor" PERFORMER "Ky-mani Marley" ISRC GBAEN0300036 INDEX 00 17:04:44 INDEX 01 17:05:27 TRACK 06 AUDIO TITLE "Hey Love" PERFORMER "Ky-mani Marley" ISRC GBAEN0300037 INDEX 00 21:43:03 INDEX 01 21:43:61 TRACK 07 AUDIO TITLE "Yesterday" PERFORMER "Ky-mani Marley" ISRC GBAEN0300038 INDEX 00 26:10:58 INDEX 01 26:11:41 TRACK 08 AUDIO TITLE "Hi-way" PERFORMER "Ky-mani Marley" ISRC GBAEN0300039 INDEX 00 30:10:62 INDEX 01 30:11:45 TRACK 09 AUDIO TITLE "Tom Drunk" PERFORMER "Ky-mani Marley" ISRC GBAEN0300040 INDEX 00 34:28:62 INDEX 01 34:29:45 TRACK 10 AUDIO TITLE "Your Love" PERFORMER "Ky-mani Marley" ISRC GBAEN0300041 INDEX 00 39:27:24 INDEX 01 39:28:07 TRACK 11 AUDIO TITLE "Fell in Love" PERFORMER "Ky-mani Marley" ISRC GBAEN0300042 INDEX 00 44:19:33 INDEX 01 44:20:16 TRACK 12 AUDIO TITLE "Warriors" PERFORMER "Ky-mani Marley" ISRC GBAEN0300043 INDEX 00 48:54:72 INDEX 01 48:55:55 TRACK 13 AUDIO TITLE "Lord is my Shepherd" PERFORMER "Ky-mani Marley" ISRC GBAEN0300044 INDEX 00 53:01:07 INDEX 01 53:01:65
Biographyby Mike DaRonco

Following in the legacy of his father's footsteps, Ky-Mani Marley continues on with the pop-reggae sound for which his family is known. Stepping into his Jamaican roots, Marley independently released his debut, The Journey, in 1998. It developed a huge following on the reggae charts as well as some dedication from fans of Bob Marley. The following year, The Journey was eventually re-released in the United States. Many More Records appeared in spring 2001, with Radio following in 2007. Both were released on Artists Only.
Есть песни из первых альбомов и пару новых с не много другим звучанием. Забалдеть...


Трекер:  [ 16-Май-2012 21:57 ]

  

Скачать .torrent

Размер .torrent файла 15 KB


Размер: 374 MB
Хэш (hash) релиза: bdc896d86d3ef7e0d54fab6ce013b8a0a8f38b24

Еще никто не оставлял запись к записи скачать торрент Ky-mani Marley - Milestone - 2004, . Будь первым!

!Обратная связь