Friends Appeal | Comments: 0 | Short Stories

Скачать через торрент музыку Dennis Bovell - Decibel: More Cuts And Dubs 1976-1983 - 2003, FLAC бесплатно без регистрации torrent

Статистика раздачи
Размер:  347 MB   |    Зарегистрирован:  6 лет 2 месяца   |    .torrent скачан:  61 раз   |   
Раздают:  1  
   
загрузка...
 
Автор Сообщение

Galfimbul

avatar Galfimbul


Dennis Bovell / Decibel: More Cuts And Dubs 1976-1983

Жанр: Dub
Страна-производитель диска: UK
Год издания: 2003
Издатель (лейбл): Pressure Sounds
Номер по каталогу: PSCD39
Аудиокодек: FLAC (*.flac)
Тип рипа: image+.cue
Битрейт аудио: lossless
Продолжительность: 56:28
Источник (релизер): cd
Наличие сканов в содержимом раздачи: нет
Треклист:
01 The Grunwick Affair (4:02)
02 Harmoniser Dub (4:25)
03 Dominium Dub (3:30)
04 Rowing 12' Version (7:00)
05 Zombie Zones (3:58)
06 Zion Dub (2:44)
07 Higher Ranking (4:29)
08 Ranking High (2:42)
09 Scientific (2:57)
10 Shi-cago (2:49)
11 None Jah Jah Children (3:10)
12 Uganda Crisis (2:24)
13 Ah Fi Wi Dis (2:50)
14 Entebbe (2:58)
15 Blood A Go Run (3:36)
16 Dub'er (2:53)
  
Exact Audio Copy V1.0 beta 3 from 29. August 2011

EAC extraction logfile from 14. May 2012, 0:46

Dennis Bovell / Decibel

Used drive : Optiarc BD RW BD-5300S Adapter: 1 ID: 1

Read mode : SecureUtilize accurate stream : YesDefeat audio cache : YesMake use of C2 pointers : No

Read offset correction : 6Overread into Lead-In and Lead-Out : NoFill up missing offset samples with silence : YesDelete leading and trailing silent blocks : NoNull samples used in CRC calculations : YesUsed interface : Installed external ASPI interface

Used output format : User Defined EncoderSelected bitrate : 1024 kBit/sQuality : HighAdd ID3 tag : NoCommand line compressor : C:\Program Files\Exact Audio Copy\Flac\flac.exeAdditional command line options : -8 -V %source%

TOC of the extracted CD

Track | Start | Length | Start sector | End sector --------------------------------------------------------- 1 | 0:00.00 | 4:02.30 | 0 | 18179 2 | 4:02.30 | 4:25.34 | 18180 | 38088 3 | 8:27.64 | 3:30.05 | 38089 | 53843 4 | 11:57.69 | 6:59.74 | 53844 | 85342 5 | 18:57.68 | 3:58.31 | 85343 | 103223 6 | 22:56.24 | 2:44.19 | 103224 | 115542 7 | 25:40.43 | 4:28.55 | 115543 | 135697 8 | 30:09.23 | 2:41.66 | 135698 | 147838 9 | 32:51.14 | 2:56.71 | 147839 | 161109 10 | 35:48.10 | 2:49.32 | 161110 | 173816 11 | 38:37.42 | 3:09.57 | 173817 | 188048 12 | 41:47.24 | 2:23.71 | 188049 | 198844 13 | 44:11.20 | 2:50.02 | 198845 | 211596 14 | 47:01.22 | 2:58.02 | 211597 | 224948 15 | 49:59.24 | 3:35.46 | 224949 | 241119 16 | 53:34.70 | 2:52.43 | 241120 | 254062

Range status and errors

Selected range

Filename J:\temp\nnm\Dennis Bovell - Decibel.wav

Peak level 99.5 % Extraction speed 7.1 X Range quality 100.0 % Test CRC FD925D7B Copy CRC FD925D7B Copy OK

No errors occurred

AccurateRip summary

Track 1 accurately ripped (confidence 3) [88053E6C] (AR v1)Track 2 accurately ripped (confidence 3) [BE124FF2] (AR v1)Track 3 accurately ripped (confidence 3) [94D52F8F] (AR v1)Track 4 accurately ripped (confidence 3) [4AD720F8] (AR v1)Track 5 accurately ripped (confidence 3) [1765AAA3] (AR v1)Track 6 accurately ripped (confidence 3) [A7738DEB] (AR v1)Track 7 accurately ripped (confidence 3) [900F9B4F] (AR v1)Track 8 accurately ripped (confidence 3) [1C15B828] (AR v1)Track 9 accurately ripped (confidence 3) [4F4393D9] (AR v1)Track 10 accurately ripped (confidence 3) [599C0BE3] (AR v1)Track 11 accurately ripped (confidence 3) [84A22029] (AR v1)Track 12 accurately ripped (confidence 3) [06228C5C] (AR v1)Track 13 accurately ripped (confidence 3) [CAAFEBBB] (AR v1)Track 14 accurately ripped (confidence 3) [033E928B] (AR v1)Track 15 accurately ripped (confidence 3) [F55CB7CE] (AR v1)Track 16 accurately ripped (confidence 3) [E4C8AB84] (AR v1)

All tracks accurately ripped

End of status report

---- CUETools DB Plugin V2.1.3

[CTDB TOCID: QaxuAaEsi._WveAGt6GgQq_AIUM-] found, Submit result: QaxuAaEsi._WveAGt6GgQq_AIUM- has been confirmed[71bee5bc] (3/3) Accurately ripped

==== Log checksum A814E4C01A5F49438441CF2C29985B8FF58345DB60C40B2A65CEBB00BD7B7805 ====


Трекер:  [ 16-Май-2012 21:56 ]

  

Скачать .torrent

Размер .torrent файла 14 KB


Размер: 347 MB
Хэш (hash) релиза: b8a0df2c0f82942cf0ea3c7f2be3bc2dfc8c4c22

Еще никто не оставлял запись к записи скачать торрент Dennis Bovell - Decibel: More Cuts And Dubs 1976-1983 - 2003, FLAC . Будь первым!

!Обратная связь