Deep.State.S01E08.iNTERNAL.720p.HDTV.x264-TURBO.mkv | Chapter Thirty-Four: Judgment Night | Initial D

Скачать через торрент музыку Bob Andy - Hanging Tough - 1997, FLAC бесплатно без регистрации torrent

Статистика раздачи
Размер:  350 MB   |    Зарегистрирован:  6 лет 2 месяца   |    .torrent скачан:  57 раз   |   
Раздают:  1  
   
загрузка...
 
Автор Сообщение

Galfimbul

avatar Galfimbul


Bob Andy / Hanging Tough

Жанр: Contemporary Reggae, Soulful Reggae
Страна-производитель диска: USA
Год издания: 1997
Издатель (лейбл): VP/ HeavyBeat
Номер по каталогу: VPCD 1484
Страна: Jamaica
Аудиокодек: FLAC (*.flac)
Тип рипа: tracks+.cue
Битрейт аудио: lossless
Продолжительность: 00:54:45
Источник (релизер): duppyB
Наличие сканов в содержимом раздачи: да

Треклист:
1 Truth Is 3:30
2 Keep On Moving 3:49
3 Die No More 3:46
4 Lady Lately 3:54
5 It's Amazing 3:43
6 Give Thanks 3:33
7 Wake Up Everybody 3:32
8 Hanging Tough 3:49
9 Fate Steps In 3:36
10 Truly Grateful 3:20
11 Love This Life (Remix) 3:25
12 So Much Love 3:32
13 Super Power 3:42
14 And I Cried 3:54
15 Love Is A Hurting Thing 3:31

It's Amazing/ Super Power
  
Exact Audio Copy V1.0 beta 3 from 29. August 2011

EAC extraction logfile from 13. May 2012, 8:02

Bob Andy / Hanging Tough

Used drive : ASUS DRW-24B3ST Adapter: 2 ID: 1

Read mode : SecureUtilize accurate stream : YesDefeat audio cache : YesMake use of C2 pointers : No

Read offset correction : 6Overread into Lead-In and Lead-Out : NoFill up missing offset samples with silence : YesDelete leading and trailing silent blocks : NoNull samples used in CRC calculations : YesUsed interface : Native Win32 interface for Win NT & 2000Gap handling : Appended to previous track

Used output format : User Defined EncoderSelected bitrate : 128 kBit/sQuality : HighAdd ID3 tag : NoCommand line compressor : C:\Program Files\Exact Audio Copy\Flac\flac.exeAdditional command line options : -V -8 -T "Date=%year%" -T "Genre=%genre%" %source%

TOC of the extracted CD

Track | Start | Length | Start sector | End sector --------------------------------------------------------- 1 | 0:00.00 | 3:30.34 | 0 | 15783 2 | 3:30.34 | 3:49.43 | 15784 | 33001 3 | 7:20.02 | 3:46.28 | 33002 | 49979 4 | 11:06.30 | 3:54.02 | 49980 | 67531 5 | 15:00.32 | 3:43.30 | 67532 | 84286 6 | 18:43.62 | 3:33.67 | 84287 | 100328 7 | 22:17.54 | 3:32.68 | 100329 | 116296 8 | 25:50.47 | 3:49.68 | 116297 | 133539 9 | 29:40.40 | 3:36.10 | 133540 | 149749 10 | 33:16.50 | 3:20.30 | 149750 | 164779 11 | 36:37.05 | 3:25.10 | 164780 | 180164 12 | 40:02.15 | 3:32.19 | 180165 | 196083 13 | 43:34.34 | 3:42.56 | 196084 | 212789 14 | 47:17.15 | 3:54.42 | 212790 | 230381 15 | 51:11.57 | 3:31.55 | 230382 | 246261

Track 1

Filename E:\Bob Andy - Hanging Tough (1997)\01. Truth Is.wav

Pre-gap length 0:00:02.00

Peak level 99.9 % Extraction speed 2.9 X Track quality 99.9 % Test CRC 23871F6E Copy CRC 23871F6E Track not present in AccurateRip database Copy OK

Track 2

Filename E:\Bob Andy - Hanging Tough (1997)\02. Keep On Moving.wav

Peak level 99.9 % Extraction speed 4.2 X Track quality 100.0 % Test CRC 0D718A7E Copy CRC 0D718A7E Track not present in AccurateRip database Copy OK

Track 3

Filename E:\Bob Andy - Hanging Tough (1997)\03. Die No More.wav

Peak level 99.9 % Extraction speed 3.5 X Track quality 99.9 % Test CRC 7F660189 Copy CRC 7F660189 Track not present in AccurateRip database Copy OK

Track 4

Filename E:\Bob Andy - Hanging Tough (1997)\04. Lady Lately.wav

Peak level 99.9 % Extraction speed 3.8 X Track quality 99.9 % Test CRC 3BBC0CD8 Copy CRC 3BBC0CD8 Track not present in AccurateRip database Copy OK

Track 5

Filename E:\Bob Andy - Hanging Tough (1997)\05. It's Amazing.wav

Peak level 99.9 % Extraction speed 4.0 X Track quality 99.9 % Test CRC FBC06406 Copy CRC FBC06406 Track not present in AccurateRip database Copy OK

Track 6

Filename E:\Bob Andy - Hanging Tough (1997)\06. Give Thanks.wav

Peak level 98.8 % Extraction speed 5.3 X Track quality 100.0 % Test CRC 8A047B65 Copy CRC 8A047B65 Track not present in AccurateRip database Copy OK

Track 7

Filename E:\Bob Andy - Hanging Tough (1997)\07. Wake Up Everybody.wav

Peak level 99.9 % Extraction speed 5.5 X Track quality 100.0 % Test CRC 196E8575 Copy CRC 196E8575 Track not present in AccurateRip database Copy OK

Track 8

Filename E:\Bob Andy - Hanging Tough (1997)\08. Hanging Tough.wav

Peak level 99.9 % Extraction speed 5.8 X Track quality 100.0 % Test CRC E038A06F Copy CRC E038A06F Track not present in AccurateRip database Copy OK

Track 9

Filename E:\Bob Andy - Hanging Tough (1997)\09. Fate Steps In.wav

Peak level 94.4 % Extraction speed 4.7 X Track quality 99.9 % Test CRC B237F20F Copy CRC B237F20F Track not present in AccurateRip database Copy OK

Track 10

Filename E:\Bob Andy - Hanging Tough (1997)\10. Truly Grateful.wav

Peak level 99.9 % Extraction speed 6.1 X Track quality 100.0 % Test CRC 011968E6 Copy CRC 011968E6 Track not present in AccurateRip database Copy OK

Track 11

Filename E:\Bob Andy - Hanging Tough (1997)\11. Love This Life.wav

Peak level 99.9 % Extraction speed 6.4 X Track quality 100.0 % Test CRC 3F168E7A Copy CRC 3F168E7A Track not present in AccurateRip database Copy OK

Track 12

Filename E:\Bob Andy - Hanging Tough (1997)\12. So Much Love.wav

Peak level 99.9 % Extraction speed 6.6 X Track quality 100.0 % Test CRC 28E0E84E Copy CRC 28E0E84E Track not present in AccurateRip database Copy OK

Track 13

Filename E:\Bob Andy - Hanging Tough (1997)\13. Super Power.wav

Peak level 99.9 % Extraction speed 5.3 X Track quality 99.9 % Test CRC A9BEF84D Copy CRC A9BEF84D Track not present in AccurateRip database Copy OK

Track 14

Filename E:\Bob Andy - Hanging Tough (1997)\14. And I Cried.wav

Peak level 99.9 % Extraction speed 7.1 X Track quality 100.0 % Test CRC C181479C Copy CRC C181479C Track not present in AccurateRip database Copy OK

Track 15

Filename E:\Bob Andy - Hanging Tough (1997)\15. Love Is A Hurting Thing.wav

Peak level 99.9 % Extraction speed 7.2 X Track quality 100.0 % Test CRC AB7B3BC8 Copy CRC AB7B3BC8 Track not present in AccurateRip database Copy OK

None of the tracks are present in the AccurateRip database

No errors occurred

End of status report

==== Log checksum 3B499DDBE8B4EBAF449CF748613EB25446605A36FF64C27E7E6FA7138E72D7E9 ====
  
REM GENRE ReggaeREM DATE 1997REM DISCID D40CD30FREM COMMENT "ExactAudioCopy v1.0b3"PERFORMER "Bob Andy"TITLE "Hanging Tough"FILE "01. Truth Is.wav" WAVE TRACK 01 AUDIO TITLE "Truth Is" PERFORMER "Bob Andy" INDEX 01 00:00:00FILE "02. Keep On Moving.wav" WAVE TRACK 02 AUDIO TITLE "Keep On Moving" PERFORMER "Bob Andy" INDEX 01 00:00:00FILE "03. Die No More.wav" WAVE TRACK 03 AUDIO TITLE "Die No More" PERFORMER "Bob Andy" INDEX 01 00:00:00FILE "04. Lady Lately.wav" WAVE TRACK 04 AUDIO TITLE "Lady Lately" PERFORMER "Bob Andy" INDEX 01 00:00:00FILE "05. It's Amazing.wav" WAVE TRACK 05 AUDIO TITLE "It's Amazing" PERFORMER "Bob Andy" INDEX 01 00:00:00FILE "06. Give Thanks.wav" WAVE TRACK 06 AUDIO TITLE "Give Thanks" PERFORMER "Bob Andy" INDEX 01 00:00:00FILE "07. Wake Up Everybody.wav" WAVE TRACK 07 AUDIO TITLE "Wake Up Everybody" PERFORMER "Bob Andy" INDEX 01 00:00:00FILE "08. Hanging Tough.wav" WAVE TRACK 08 AUDIO TITLE "Hanging Tough" PERFORMER "Bob Andy" INDEX 01 00:00:00FILE "09. Fate Steps In.wav" WAVE TRACK 09 AUDIO TITLE "Fate Steps In" PERFORMER "Bob Andy" INDEX 01 00:00:00FILE "10. Truly Grateful.wav" WAVE TRACK 10 AUDIO TITLE "Truly Grateful" PERFORMER "Bob Andy" INDEX 01 00:00:00FILE "11. Love This Life.wav" WAVE TRACK 11 AUDIO TITLE "Love This Life" PERFORMER "Bob Andy" INDEX 01 00:00:00FILE "12. So Much Love.wav" WAVE TRACK 12 AUDIO TITLE "So Much Love" PERFORMER "Bob Andy" INDEX 01 00:00:00FILE "13. Super Power.wav" WAVE TRACK 13 AUDIO TITLE "Super Power" PERFORMER "Bob Andy" INDEX 01 00:00:00FILE "14. And I Cried.wav" WAVE TRACK 14 AUDIO TITLE "And I Cried" PERFORMER "Bob Andy" INDEX 01 00:00:00FILE "15. Love Is A Hurting Thing.wav" WAVE TRACK 15 AUDIO TITLE "Love Is A Hurting Thing" PERFORMER "Bob Andy" INDEX 01 00:00:00
Bob Andy (born Keith Anderson) is one of reggae's most influential songwriters. His late-'60s hits, including "Going Home," "Unchained," "Feeling Soul," "My Time," "The Ghetto Stays in the Mind," and "Feel the Feeling," and his 1992 hit, "Fire Burning," have become reggae standards and have been covered numerous times. Andy first attracted attention as the lead vocalist of mid-'60s reggae band the Paragons. His apex as a solo artist came in the late '60s when he recorded a string of singles for Coxsone Dodd's Studio One. In 1988, these singles were compiled on an album, The Bob Andy Songbook. During the early '70s, Andy teamed with Marcia Griffiths to record several tunes, including the U.K. hits "Young, Gifted and Black" and "Pied Piper," as the duo Bob & Marcia. In 1978, Andy took a five-year long sabbatical from music to concentrate on his career as an actor. Andy's 1988 album Freely, recorded in London and Jamaica, was re-issued in 1997. The same year, he released an all-new album, Hangin' Tough, produced by Willie Lindo.
by Craig Harris
This album "Hanging Tough" by the visionary singer/songwriter, Bob Andy, signaled a dynamic return to form of an artist, who has mastered his craft and achieved successful results.
"Hanging Tuff" showcases Bob Andy's feverent vocals with his heartful lyrics and roots/blues melodies. He is caught in some of his finest moments singing songs about social injustice like, "Super Power" and "Die No More", and songs that glorify life such as "Love This Life" and "Soil mt Love". He sings praises on "Give Thanks" and "Truly Grateful." For the romantics, there are "Faith Steps In" and "Lady Lately" along with the seminal lovers' rock "It's Amazing" and "And I Cried". Two very fitting and solid compliments were paid on the covers of "Wake Up Everybody" and "Love is a Hurting Thing" among other original gems that complete the 15 tracks.
The production benifitted greatly from the skills of the highly respected producer the "Gentle Genius", Willie Lindo, whose inventive arrangement remains in tact as he utilizes the cream of musicians. In addition to playing his guitars, he collaborated with Robbie Shakespeare, Robbie Lyn, Karl Pitterson, Bulgie Farquharson and Asher among others. The result is a captivating effect of a web of sounds that has formed dancing rhythms for the legendary Bob Andy to release a new volume in his "Song Book" tradition.
C. Danny Breakenridge
Bob Andy (vocals, background vocals); Robbie Shakespeare (bass); Willie Lindo (guitar, acoustic guitar); Ernest Walker (saxophone, alto saxophone, horns); Chico Chin (trumpet); Nambo Robinson (trombone); Karl Pitterson (piano, keyboards, drums); Computer Paul (piano, drums); Kashief Lindo (piano, background vocals); Asha (piano); Mikey Bassie (synthesizer, background vocals); Robert Lyn (synthesizer); Ledean Webster, Al Campbell, Mickal Rustle , Anthony Cruz (background vocals).


Трекер:  [ 16-Май-2012 21:56 ]

  

Скачать .torrent

Размер .torrent файла 15 KB


Размер: 350 MB
Хэш (hash) релиза: 83e93806377d45876e63bd4a26b690be927e8fa0

Еще никто не оставлял запись к записи скачать торрент Bob Andy - Hanging Tough - 1997, FLAC . Будь первым!

!Обратная связь