Immortelle randonnée (texte intégral illustré de 130 photos et dessins) | Die Abenteuer des Papyrus | Bilderstrecken

Скачать через торрент музыку Redska - La Rivolta - 2012, FLAC бесплатно без регистрации torrent

Статистика раздачи
Размер:  383 MB   |    Зарегистрирован:  6 лет 2 месяца   |    .torrent скачан:  83 раза   |   
Раздают:  1  
   
загрузка...
 
Автор Сообщение

Galfimbul

avatar Galfimbul


Redska - La Rivolta

Жанр: SkaPunk
Страна-производитель диска: Italy
Год издания: 2012
Издатель (лейбл): One Step Records
Номер по каталогу: OSR 19
Страна: Italy
Аудиокодек: FLAC (*.flac)
Тип рипа: tracks+.cue
Битрейт аудио: lossless
Продолжительность: 52:38 min
Источник (релизер): what.cd
Наличие сканов в содержимом раздачи: нет
Треклист:

01 - Sounds Of Revolution (03:33)
02 - Legato Dalla Lega (04:10)
03 - Bastardi Senza Gloria (04:14)
04 - Hooligan Rudeboys (Feat. Valerio – The Offenders) (04:23)
05 - Lettera A Sua Santita (04:58)
06 - Studente Precario Rivoluzionario (Feat. Kino – Arpioni) (04:21)
07 - From The Crane (00:40)
08 - La Rivolta (04:03)
09 - Quello Che Sei (03:24)
10 - Riot Radio (01:01)
11 - White Riot (Feat. Micky – No Relax) (02:08)
12 - Eroi (Feat. Rude Hi-Fi) (05:20)
13 - Natura (04:40)
14 - Vivo-Steady (05:38)
  
Exact Audio Copy V1.0 beta 2 from 29. April 2011

EAC extraction logfile from 4. March 2012, 6:22

Redska / La Rivolta

Used drive : PIONEER DVD-RW DVR-110D Adapter: 0 ID: 3

Read mode : SecureUtilize accurate stream : YesDefeat audio cache : YesMake use of C2 pointers : No

Read offset correction : 48Overread into Lead-In and Lead-Out : NoFill up missing offset samples with silence : YesDelete leading and trailing silent blocks : NoNull samples used in CRC calculations : YesUsed interface : Native Win32 interface for Win NT & 2000Gap handling : Appended to previous track

Used output format : User Defined EncoderSelected bitrate : 896 kBit/sQuality : HighAdd ID3 tag : NoCommand line compressor : C:\Program Files\Exact Audio Copy\Flac\flac.exeAdditional command line options : -8 -V -T "ARTIST=%artist%" -T "TITLE=%title%" -T "ALBUM=%albumtitle%" -T "DATE=%year%" -T "TRACKNUMBER=%tracknr%" -T "GENRE=%genre%" -T "PERFORMER=%albuminterpret%" -T "COMPOSER=%composer%" %haslyrics%--tag-from-file=LYRICS

TOC of the extracted CD

Track | Start | Length | Start sector | End sector --------------------------------------------------------- 1 | 0:00.00 | 3:33.62 | 0 | 16036 2 | 3:33.62 | 4:10.14 | 16037 | 34800 3 | 7:44.01 | 4:14.56 | 34801 | 53906 4 | 11:58.57 | 4:23.26 | 53907 | 73657 5 | 16:22.08 | 4:58.12 | 73658 | 96019 6 | 21:20.20 | 4:21.47 | 96020 | 115641 7 | 25:41.67 | 0:40.36 | 115642 | 118677 8 | 26:22.28 | 4:03.33 | 118678 | 136935 9 | 30:25.61 | 3:24.53 | 136936 | 152288 10 | 33:50.39 | 1:01.00 | 152289 | 156863 11 | 34:51.39 | 2:08.16 | 156864 | 166479 12 | 36:59.55 | 5:20.16 | 166480 | 190495 13 | 42:19.71 | 4:40.62 | 190496 | 211557 14 | 47:00.58 | 5:38.14 | 211558 | 236921

Track 1

Filename C:\EACRips\Redska - 2012 - La Rivolta\01 - 1. SOUNDS OF REVOLUTION.wav

Pre-gap length 0:00:02.00

Peak level 94.2 % Extraction speed 4.6 X Track quality 100.0 % Test CRC 7E4703F7 Copy CRC 7E4703F7 Track not present in AccurateRip database Copy OK

Track 2

Filename C:\EACRips\Redska - 2012 - La Rivolta\02 - 2. LEGATO DALLA LEGA.wav

Pre-gap length 0:00:01.98

Peak level 94.2 % Extraction speed 5.0 X Track quality 100.0 % Test CRC 5CA1A84B Copy CRC 5CA1A84B Track not present in AccurateRip database Copy OK

Track 3

Filename C:\EACRips\Redska - 2012 - La Rivolta\03 - 3. BASTARDI SENZA GLORIA.wav

Pre-gap length 0:00:01.98

Peak level 94.2 % Extraction speed 5.6 X Track quality 100.0 % Test CRC 54111EAC Copy CRC 54111EAC Track not present in AccurateRip database Copy OK

Track 4

Filename C:\EACRips\Redska - 2012 - La Rivolta\04 - 4. HOOLIGAN RUDEBOYS (feat. Valerio – THE OFFENDERS).wav

Pre-gap length 0:00:01.98

Peak level 93.4 % Extraction speed 6.1 X Track quality 100.0 % Test CRC 0A3169A1 Copy CRC 0A3169A1 Track not present in AccurateRip database Copy OK

Track 5

Filename C:\EACRips\Redska - 2012 - La Rivolta\05 - 5. LETTERA A SUA SANTITA’.wav

Pre-gap length 0:00:01.98

Peak level 94.2 % Extraction speed 5.9 X Track quality 99.9 % Test CRC 7C1C4888 Copy CRC 7C1C4888 Track not present in AccurateRip database Copy OK

Track 6

Filename C:\EACRips\Redska - 2012 - La Rivolta\06 - 6. STUDENTE PRECARIO RIVOLUZIONARIO (feat. Kino – ARPIONI).wav

Pre-gap length 0:00:00.29

Peak level 94.2 % Extraction speed 5.1 X Track quality 99.9 % Test CRC 9525DDF8 Copy CRC 9525DDF8 Track not present in AccurateRip database Copy OK

Track 7

Filename C:\EACRips\Redska - 2012 - La Rivolta\07 - 7. FROM THE CRANE.wav

Pre-gap length 0:00:02.82

Peak level 66.2 % Extraction speed 2.3 X Track quality 99.7 % Test CRC 8BA75A77 Copy CRC 8BA75A77 Track not present in AccurateRip database Copy OK

Track 8

Filename C:\EACRips\Redska - 2012 - La Rivolta\08 - 8. LA RIVOLTA.wav

Peak level 94.2 % Extraction speed 6.9 X Track quality 100.0 % Test CRC 96F75AA1 Copy CRC 96F75AA1 Track not present in AccurateRip database Copy OK

Track 9

Filename C:\EACRips\Redska - 2012 - La Rivolta\09 - 9. QUELLO CHE SEI.wav

Pre-gap length 0:00:02.70

Peak level 94.2 % Extraction speed 7.1 X Track quality 100.0 % Test CRC 8A335907 Copy CRC 8A335907 Track not present in AccurateRip database Copy OK

Track 10

Filename C:\EACRips\Redska - 2012 - La Rivolta\10 - 10. RIOT RADIO.wav

Pre-gap length 0:00:01.98

Peak level 72.1 % Extraction speed 4.4 X Track quality 100.0 % Test CRC 8122011F Copy CRC 8122011F Track not present in AccurateRip database Copy OK

Track 11

Filename C:\EACRips\Redska - 2012 - La Rivolta\11 - 11. WHITE RIOT (feat. Micky – NO RELAX).wav

Peak level 94.2 % Extraction speed 6.6 X Track quality 100.0 % Test CRC D2905A92 Copy CRC D2905A92 Track not present in AccurateRip database Copy OK

Track 12

Filename C:\EACRips\Redska - 2012 - La Rivolta\12 - 12. EROI (feat. RUDE HI-FI).wav

Pre-gap length 0:00:01.98

Peak level 94.2 % Extraction speed 7.9 X Track quality 100.0 % Test CRC F7642635 Copy CRC F7642635 Track not present in AccurateRip database Copy OK

Track 13

Filename C:\EACRips\Redska - 2012 - La Rivolta\13 - 13. NATURA.wav

Pre-gap length 0:00:01.98

Peak level 92.4 % Extraction speed 6.5 X Track quality 99.9 % Test CRC 0A3D037E Copy CRC 0A3D037E Track not present in AccurateRip database Copy OK

Track 14

Filename C:\EACRips\Redska - 2012 - La Rivolta\14 - 14. VIVO-STEADY.wav

Pre-gap length 0:00:01.98

Peak level 94.2 % Extraction speed 8.5 X Track quality 100.0 % Test CRC DF14A8EC Copy CRC DF14A8EC Track not present in AccurateRip database Copy OK

None of the tracks are present in the AccurateRip database

No errors occurred

End of status report

==== Log checksum D5BB148238EE3B67BA18C1186FB13D48CB6853A19A00327CE13EC3F8E67F223A ====
  
REM GENRE SkaPunkREM DATE 2012REM DISCID AC0C560EREM COMMENT "ExactAudioCopy v1.0b2"PERFORMER RedskaTITLE "La Rivolta"FILE "01 - Sounds Of Revolution.Flac" WAVE TRACK 01 AUDIO TITLE "Sounds Of Revolution" PERFORMER Redska ISRC ITP221200001 INDEX 01 00:00:00 TRACK 02 AUDIO TITLE "Legato Dalla Lega" PERFORMER Redska ISRC ITP221200002 INDEX 00 03:31:63FILE "02 - Legato Dalla Lega.Flac" WAVE INDEX 01 00:00:00 TRACK 03 AUDIO TITLE "Bastardi Senza Gloria" PERFORMER Redska ISRC ITP221200003 INDEX 00 04:08:15FILE "03 - Bastardi Senza Gloria.Flac" WAVE INDEX 01 00:00:00 TRACK 04 AUDIO TITLE "Hooligan Rudeboys (Feat. Valerio – The Offenders)" PERFORMER Redska ISRC ITP221200004 INDEX 00 04:12:57FILE "04 - Hooligan Rudeboys (Feat. Valerio - The Offenders).Flac" WAVE INDEX 01 00:00:00 TRACK 05 AUDIO TITLE "Lettera A Sua Santita" PERFORMER Redska ISRC ITP221200005 INDEX 00 04:21:27FILE "05 - Lettera A Sua Santita.Flac" WAVE INDEX 01 00:00:00 TRACK 06 AUDIO TITLE "Studente Precario Rivoluzionario (Feat. Kino – Arpioni)" PERFORMER Redska ISRC ITP221200006 INDEX 00 04:57:65FILE "06 - Studente Precario Rivoluzionario (Feat. Kino - Arpioni).Flac" WAVE INDEX 01 00:00:00 TRACK 07 AUDIO TITLE "From The Crane" PERFORMER Redska ISRC ITP221200007 INDEX 00 04:18:60FILE "07 - From The Crane.Flac" WAVE INDEX 01 00:00:00FILE "08 - La Rivolta.Flac" WAVE TRACK 08 AUDIO TITLE "La Rivolta" PERFORMER Redska ISRC ITP221200008 INDEX 01 00:00:00 TRACK 09 AUDIO TITLE "Quello Che Sei" PERFORMER Redska ISRC ITP221200009 INDEX 00 04:00:55FILE "09 - Quello Che Sei.Flac" WAVE INDEX 01 00:00:00 TRACK 10 AUDIO TITLE "Riot Radio" PERFORMER Redska ISRC ITP221200010 INDEX 00 03:22:54FILE "10 - Riot Radio.Flac" WAVE INDEX 01 00:00:00FILE "11 - White Riot (Feat. Micky - No Relax).Flac" WAVE TRACK 11 AUDIO TITLE "White Riot (Feat. Micky – No Relax)" PERFORMER Redska ISRC ITP221200011 INDEX 01 00:00:00 TRACK 12 AUDIO TITLE "Eroi (Feat. Rude Hi-Fi)" PERFORMER Redska ISRC ITP221200012 INDEX 00 02:06:17FILE "12 - Eroi (Feat. Rude Hi-Fi).Flac" WAVE INDEX 01 00:00:00 TRACK 13 AUDIO TITLE Natura PERFORMER Redska ISRC ITP221200013 INDEX 00 05:18:17FILE "13 - Natura" WAVE INDEX 01 00:00:00 TRACK 14 AUDIO TITLE Vivo-Steady PERFORMER Redska ISRC ITP221200014 INDEX 00 04:38:63FILE "14 - Vivo-Steady.Flac" WAVE INDEX 01 00:00:00


Трекер:  [ 12-Май-2012 22:18 ]

  

Скачать .torrent

Размер .torrent файла 16 KB


Размер: 383 MB
Хэш (hash) релиза: 514e14a9949df36432d6e36cc352e4a9655e8108

Еще никто не оставлял запись к записи скачать торрент Redska - La Rivolta - 2012, FLAC . Будь первым!

!Обратная связь