Hakkenden: Touhou Hakken Ibun | Download | My Mr. Mermaid (Cantonese) - 浪花一朵朵My Mr. Mermaid (Cantonese)

Скачать через торрент музыку The Proffesionals Meet The Aggrovators At Joe Gibbs - 2007, FLAC бесплатно без регистрации torrent

Статистика раздачи
Размер:  254 MB   |    Зарегистрирован:  6 лет 2 месяца   |    .torrent скачан:  41 раз   |   
Раздают:  1  
   
загрузка...
 
Автор Сообщение

Galfimbul

avatar Galfimbul


The Proffesionals Meet The Aggrovators At Joe Gibbs

Жанр: Dub
Страна-производитель диска: UK
Год издания: 2007
Издатель (лейбл): Jamaican Recordings
Номер по каталогу: JRCD026
Аудиокодек: FLAC (*.flac)
Тип рипа: image+.cue
Битрейт аудио: lossless
Продолжительность: 51:03
Источник (релизер): cd
Наличие сканов в содержимом раздачи: нет
Треклист:
01 Satta Dub (3:46)
02 Dubs Not Gone Forever (3:41)
03 Dub In Vain (3:44)
04 Ethiopian Dub (3:00)
05 Dub On The Beach (3:12)
06 We All Feel The Dub (3:37)
07 Great Dub Wall (3:28)
08 Boastful Dub (3:58)
09 Apple Yam Dub (3:24)
10 Brown Eyes Dub (3:26)
11 Dub Island (3:35)
12 Lonely Dub (4:03)
13 Dub My Fire (4:04)
14 Dub For The Meek (4:07)
  
Exact Audio Copy V1.0 beta 1 from 15. November 2010

EAC extraction logfile from 22. September 2011, 22:33

The Professionals Meet The Aggrovators / At Joe Gibbs

Used drive : ASUS CRW-4816A Adapter: 2 ID: 1

Read mode : SecureUtilize accurate stream : YesDefeat audio cache : YesMake use of C2 pointers : No

Read offset correction : 12Overread into Lead-In and Lead-Out : NoFill up missing offset samples with silence : YesDelete leading and trailing silent blocks : NoNull samples used in CRC calculations : YesUsed interface : Installed external ASPI interface

Used output format : User Defined EncoderSelected bitrate : 1024 kBit/sQuality : HighAdd ID3 tag : NoCommand line compressor : C:\Program Files\Exact Audio Copy\Flac\flac.exeAdditional command line options : -8 -V %s

TOC of the extracted CD

Track | Start | Length | Start sector | End sector --------------------------------------------------------- 1 | 0:00.00 | 3:46.22 | 0 | 16971 2 | 3:46.22 | 3:40.38 | 16972 | 33509 3 | 7:26.60 | 3:44.02 | 33510 | 50311 4 | 11:10.62 | 2:59.41 | 50312 | 63777 5 | 14:10.28 | 3:11.45 | 63778 | 78147 6 | 17:21.73 | 3:36.55 | 78148 | 94402 7 | 20:58.53 | 3:28.11 | 94403 | 110013 8 | 24:26.64 | 3:57.50 | 110014 | 127838 9 | 28:24.39 | 3:24.13 | 127839 | 143151 10 | 31:48.52 | 3:25.57 | 143152 | 158583 11 | 35:14.34 | 3:35.20 | 158584 | 174728 12 | 38:49.54 | 4:03.29 | 174729 | 192982 13 | 42:53.08 | 4:03.42 | 192983 | 211249 14 | 46:56.50 | 4:06.40 | 211250 | 229739

Range status and errors

Selected range

Filename J:\temp\nnm\The Professionals Meet The Aggrovators - At Joe Gibbs.wav

Peak level 100.0 % Extraction speed 0.7 X Range quality 100.0 % Test CRC E9F9AB00 Copy CRC E9F9AB00 Copy OK

No errors occurred

AccurateRip summary

Track 1 accurately ripped (confidence 5) [483922AE]Track 2 accurately ripped (confidence 5) [D63D7653]Track 3 accurately ripped (confidence 5) [6270461D]Track 4 accurately ripped (confidence 5) [6B81A478]Track 5 accurately ripped (confidence 5) [648C0F39]Track 6 accurately ripped (confidence 5) [B598E987]Track 7 accurately ripped (confidence 5) [D7FC9C3B]Track 8 accurately ripped (confidence 5) [8D29A927]Track 9 accurately ripped (confidence 5) [2AB5EF37]Track 10 accurately ripped (confidence 5) [61BDCD36]Track 11 accurately ripped (confidence 5) [6299CC6B]Track 12 accurately ripped (confidence 5) [C9A509FE]Track 13 accurately ripped (confidence 5) [111698C4]Track 14 accurately ripped (confidence 5) [D926973D]

All tracks accurately ripped

End of status report


Трекер:  [ 09-Май-2012 17:28 ]

  

Скачать .torrent

Размер .torrent файла 20 KB


Размер: 254 MB
Хэш (hash) релиза: 332a335db6e8839a0f2ad605d7258f5c7aac9f03

Еще никто не оставлял запись к записи скачать торрент The Proffesionals Meet The Aggrovators At Joe Gibbs - 2007, FLAC . Будь первым!

!Обратная связь