Regarder Le Film | LazyTown’s Friends Forever BooClip | Ep.24 Partners for Justice 1×21

Скачать через торрент музыку Jackie Mittoo - Jah Rock Style - 2005, FLAC бесплатно без регистрации torrent

Статистика раздачи
Размер:  395 MB   |    Зарегистрирован:  6 лет 2 месяца   |    .torrent скачан:  54 раза   |   
Раздают:  1  
   
загрузка...
 
Автор Сообщение

Galfimbul

avatar Galfimbul


Jackie Mittoo / Jah Rock Style

Жанр: Dub, Reggae
Страна-производитель диска: UK
Год издания: 2005
Издатель (лейбл): Trojan / Sanctuary
Номер по каталогу: TJCCD302
Аудиокодек: FLAC (*.flac)
Тип рипа: image+.cue
Битрейт аудио: lossless
Продолжительность: 1:19:56
Источник (релизер): cd
Наличие сканов в содержимом раздачи: нет
Треклист:
01 You'll Never Find (3:47)
02 A Rocking Sensation (3:56)
03 World Of Love (4:16)
04 The Avenger (3:06)
05 The Penetrator (3:00)
06 Mediator (2:46)
07 Standing Ovation (2:45)
08 Jah Rock Style (2:22)
09 Hot Blood (2:53)
10 Channel One Crash (2:29)
11 Brain Mark (3:24)
12 Earthquake (3:28)
13 Atom Sounds (5:01)
14 A Revolting Rockers (3:41)
15 In Cold Blood (4:06)
16 Hot Milk (4:00)
17 Darker Shade (3:41)
18 Drum Song (3:42)
19 North Of The Sun (3:56)
20 Super Charge (4:11)
21 One Step Forward (4:41)
22 Who Done It (4:46)
  
Exact Audio Copy V1.0 beta 3 from 29. August 2011

EAC extraction logfile from 9. May 2012, 11:05

Jackie Mittoo / Jah Rock Style

Used drive : Optiarc BD RW BD-5300S Adapter: 1 ID: 1

Read mode : SecureUtilize accurate stream : YesDefeat audio cache : YesMake use of C2 pointers : No

Read offset correction : 6Overread into Lead-In and Lead-Out : NoFill up missing offset samples with silence : YesDelete leading and trailing silent blocks : NoNull samples used in CRC calculations : YesUsed interface : Installed external ASPI interface

Used output format : User Defined EncoderSelected bitrate : 1024 kBit/sQuality : HighAdd ID3 tag : NoCommand line compressor : C:\Program Files\Exact Audio Copy\Flac\flac.exeAdditional command line options : -8 -V %source%

TOC of the extracted CD

Track | Start | Length | Start sector | End sector --------------------------------------------------------- 1 | 0:00.00 | 3:46.73 | 0 | 17022 2 | 3:46.73 | 3:55.45 | 17023 | 34692 3 | 7:42.43 | 4:16.08 | 34693 | 53900 4 | 11:58.51 | 3:05.64 | 53901 | 67839 5 | 15:04.40 | 2:59.42 | 67840 | 81306 6 | 18:04.07 | 2:45.57 | 81307 | 93738 7 | 20:49.64 | 2:45.06 | 93739 | 106119 8 | 23:34.70 | 2:22.14 | 106120 | 116783 9 | 25:57.09 | 2:53.36 | 116784 | 129794 10 | 28:50.45 | 2:28.56 | 129795 | 140950 11 | 31:19.26 | 3:24.30 | 140951 | 156280 12 | 34:43.56 | 3:28.19 | 156281 | 171899 13 | 38:12.00 | 5:00.63 | 171900 | 194462 14 | 43:12.63 | 3:40.39 | 194463 | 211001 15 | 46:53.27 | 4:05.58 | 211002 | 229434 16 | 50:59.10 | 3:59.69 | 229435 | 247428 17 | 54:59.04 | 3:40.70 | 247429 | 263998 18 | 58:39.74 | 3:42.18 | 263999 | 280666 19 | 62:22.17 | 3:56.05 | 280667 | 298371 20 | 66:18.22 | 4:11.13 | 298372 | 317209 21 | 70:29.35 | 4:40.74 | 317210 | 338283 22 | 75:10.34 | 4:45.71 | 338284 | 359729

Range status and errors

Selected range

Filename J:\temp\nnm\Jackie Mittoo - Jah Rock Style.wav

Peak level 98.8 % Extraction speed 8.3 X Range quality 99.9 % Test CRC 3C4AACA7 Copy CRC 3C4AACA7 Copy OK

No errors occurred

AccurateRip summary

Track 1 not present in databaseTrack 2 not present in databaseTrack 3 not present in databaseTrack 4 not present in databaseTrack 5 not present in databaseTrack 6 not present in databaseTrack 7 not present in databaseTrack 8 not present in databaseTrack 9 not present in databaseTrack 10 not present in databaseTrack 11 not present in databaseTrack 12 not present in databaseTrack 13 not present in databaseTrack 14 not present in databaseTrack 15 not present in databaseTrack 16 not present in databaseTrack 17 not present in databaseTrack 18 not present in databaseTrack 19 not present in databaseTrack 20 not present in databaseTrack 21 not present in databaseTrack 22 not present in database

None of the tracks are present in the AccurateRip database

End of status report

---- CUETools DB Plugin V2.1.3

[CTDB TOCID: qmK_.x4nC_eTKEpswBEoEeJCMp4-] disk not present in database, Submit result: qmK_.x4nC_eTKEpswBEoEeJCMp4- has been uploaded

==== Log checksum 5BDC50A33221BD7BF2DDAAA7830398A0DACA2406886E3EE1A060F7A56C93D5C0 ====


Трекер:  [ 09-Май-2012 17:28 ]

  

Скачать .torrent

Размер .torrent файла 16 KB


Размер: 395 MB
Хэш (hash) релиза: 04b28c39692d846134df5dbbdf3d15de3845625e

Еще никто не оставлял запись к записи скачать торрент Jackie Mittoo - Jah Rock Style - 2005, FLAC . Будь первым!

!Обратная связь