High School DxD Hero episode 0 NC (Saison 4) VOSTFR | Petit Paysan streaming vf | BD Re : Zero kara Hajimeru Isekai Seikatsu Subtitle Indonesia

Скачать через торрент музыку Ras Michael & The Sons Of Negus - Rastafari + Dub - 1992, FLAC бесплатно без регистрации torrent

Статистика раздачи
Размер:  376 MB   |    Зарегистрирован:  6 лет 2 месяца   |    .torrent скачан:  54 раза   |   
Раздают:  1  
   
загрузка...
 
Автор Сообщение

Galfimbul

avatar Galfimbul


Ras Michael & The Sons Of Negus / Rastafari + Dub

Жанр: Reggae, Dub
Страна-производитель диска: France
Год издания: 1992
Издатель (лейбл): Crocodisc / Esoldun
Номер по каталогу: CC2-700
Аудиокодек: FLAC (*.flac)
Тип рипа: image+.cue
Битрейт аудио: lossless
Продолжительность: 1:06:52
Источник (релизер): cd
Наличие сканов в содержимом раздачи: нет
Треклист:
01 Give Love (7:44)
02 Give Love (Dub) (4:02)
03 Sufferation (5:54)
04 Sufferation (Dub) (5:25)
05 In Zion (5:12)
06 In Zion (Dub) (5:50)
07 None A Jah Jah Children (4:06)
08 None A Jah Jah Children (Dub) (4:23)
09 Truth & Rights (5:16)
10 Truth & Rights (Dub) (5:25)
11 Mr. Brown (4:05)
12 Glory Down (4:03)
13 It Is No Secret (5:27)
  
Exact Audio Copy V1.0 beta 3 from 29. August 2011

EAC extraction logfile from 9. May 2012, 11:29

Ras Michael & The Sons Of Negus / Rastafari Plus Dub

Used drive : Optiarc BD RW BD-5300S Adapter: 1 ID: 1

Read mode : SecureUtilize accurate stream : YesDefeat audio cache : YesMake use of C2 pointers : No

Read offset correction : 6Overread into Lead-In and Lead-Out : NoFill up missing offset samples with silence : YesDelete leading and trailing silent blocks : NoNull samples used in CRC calculations : YesUsed interface : Installed external ASPI interface

Used output format : User Defined EncoderSelected bitrate : 1024 kBit/sQuality : HighAdd ID3 tag : NoCommand line compressor : C:\Program Files\Exact Audio Copy\Flac\flac.exeAdditional command line options : -8 -V %source%

TOC of the extracted CD

Track | Start | Length | Start sector | End sector --------------------------------------------------------- 1 | 0:00.33 | 7:44.00 | 33 | 34832 2 | 7:44.33 | 4:02.37 | 34833 | 53019 3 | 11:46.70 | 5:54.00 | 53020 | 79569 4 | 17:40.70 | 5:25.00 | 79570 | 103944 5 | 23:05.70 | 5:11.38 | 103945 | 127307 6 | 28:17.33 | 5:50.37 | 127308 | 153594 7 | 34:07.70 | 4:05.38 | 153595 | 172007 8 | 38:13.33 | 4:22.50 | 172008 | 191707 9 | 42:36.08 | 5:16.25 | 191708 | 215432 10 | 47:52.33 | 5:24.50 | 215433 | 239782 11 | 53:17.08 | 4:05.00 | 239783 | 258157 12 | 57:22.08 | 4:03.37 | 258158 | 276419 13 | 61:25.45 | 5:26.63 | 276420 | 300932

Range status and errors

Selected range

Filename J:\temp\nnm\Ras Michael & The Sons Of Negus - Rastafari Plus Dub.wav

Peak level 100.0 % Extraction speed 7.7 X Range quality 100.0 % Test CRC 5C03D285 Copy CRC 5C03D285 Copy OK

No errors occurred

AccurateRip summary

Track 1 accurately ripped (confidence 2) [C4E6289A] (AR v1)Track 2 accurately ripped (confidence 2) [A1F344D6] (AR v1)Track 3 accurately ripped (confidence 2) [91F6CAB6] (AR v1)Track 4 accurately ripped (confidence 2) [85D3343A] (AR v1)Track 5 accurately ripped (confidence 2) [E175E565] (AR v1)Track 6 accurately ripped (confidence 2) [C7996AF6] (AR v1)Track 7 accurately ripped (confidence 2) [09BEDDD6] (AR v1)Track 8 accurately ripped (confidence 2) [0750CC6B] (AR v1)Track 9 accurately ripped (confidence 2) [9DC27E9D] (AR v1)Track 10 accurately ripped (confidence 2) [AECD2939] (AR v1)Track 11 accurately ripped (confidence 2) [407A2130] (AR v1)Track 12 accurately ripped (confidence 2) [C2CCB1FC] (AR v1)Track 13 accurately ripped (confidence 2) [8C1829FD] (AR v1)

All tracks accurately ripped

End of status report

---- CUETools DB Plugin V2.1.3

[CTDB TOCID: 7MFvhkzpBh2p1vzdM0dqkDQwK0o-] disk not present in database, Submit result: discs with pregaps not supported in this protocol version

==== Log checksum 1B302EE91ECB2CE288BA430FA5AC51A95FD9421479FE3F89E87FEBDFF8B4FCA7 ====


Трекер:  [ 09-Май-2012 17:28 ]

  

Скачать .torrent

Размер .torrent файла 15 KB


Размер: 376 MB
Хэш (hash) релиза: 67bc7f2d1702b93d8ca982941df8f26b5dd6960e

Еще никто не оставлял запись к записи скачать торрент Ras Michael & The Sons Of Negus - Rastafari + Dub - 1992, FLAC . Будь первым!

!Обратная связь