Tower of God | Bungou Stray Dogs | Drifters

Скачать через торрент музыку Impact All Stars - Forward The Bass: Dub from Randys 1972-1975 - 1998, FLAC бесплатно без регистрации torrent

Статистика раздачи
Размер:  183 MB   |    Зарегистрирован:  6 лет 2 месяца   |    .torrent скачан:  35 раз   |   
Раздают:  1  
   
загрузка...
 
Автор Сообщение

Galfimbul

avatar Galfimbul


Impact All Stars / Forward The Bass: Dub from Randy's 1972-1975

Жанр: Dub
Страна-производитель диска: UK
Год издания: 1998
Издатель (лейбл): Blood & Fire
Номер по каталогу: BAFCD022
Аудиокодек: FLAC (*.flac)
Тип рипа: image+.cue
Битрейт аудио: lossless
Продолжительность: 42:18
Источник (релизер): cd
Наличие сканов в содержимом раздачи: нет
Треклист:
01 Jaro (3:25)
02 Maro (2:53)
03 Ordinary Version Chapter 3 (2:50)
04 Extraordinary Version (2:56)
05 Wire Dub (2:33)
06 Shining Dub (3:28)
07 Easy Come Cub (2:38)
08 Dubwise Situation (2:19)
09 Last Of The Jestering (2:57)
10 Oh Jah Dub (1:58)
11 Sabotage In Dub (2:56)
12 S-Corner Dub (2:36)
13 Just Another Dub (2:49)
14 Upbeat Version (2:51)
15 Verdict In Dub (3:10)
  
Exact Audio Copy V1.0 beta 3 from 29. August 2011

EAC extraction logfile from 9. May 2012, 14:44

Impact All Stars / Forward The Bass: Dub From Randy's 1972-1975

Used drive : Optiarc BD RW BD-5300S Adapter: 1 ID: 1

Read mode : SecureUtilize accurate stream : YesDefeat audio cache : YesMake use of C2 pointers : No

Read offset correction : 6Overread into Lead-In and Lead-Out : NoFill up missing offset samples with silence : YesDelete leading and trailing silent blocks : NoNull samples used in CRC calculations : YesUsed interface : Installed external ASPI interface

Used output format : User Defined EncoderSelected bitrate : 1024 kBit/sQuality : HighAdd ID3 tag : NoCommand line compressor : C:\Program Files\Exact Audio Copy\Flac\flac.exeAdditional command line options : -8 -V %source%

TOC of the extracted CD

Track | Start | Length | Start sector | End sector --------------------------------------------------------- 1 | 0:00.00 | 3:24.55 | 0 | 15354 2 | 3:24.55 | 2:52.47 | 15355 | 28301 3 | 6:17.27 | 2:49.43 | 28302 | 41019 4 | 9:06.70 | 2:55.62 | 41020 | 54206 5 | 12:02.57 | 2:32.55 | 54207 | 65661 6 | 14:35.37 | 3:28.23 | 65662 | 81284 7 | 18:03.60 | 2:38.27 | 81285 | 93161 8 | 20:42.12 | 2:19.25 | 93162 | 103611 9 | 23:01.37 | 2:56.60 | 103612 | 116871 10 | 25:58.22 | 1:57.63 | 116872 | 125709 11 | 27:56.10 | 2:55.65 | 125710 | 138899 12 | 30:52.00 | 2:35.55 | 138900 | 150579 13 | 33:27.55 | 2:49.25 | 150580 | 163279 14 | 36:17.05 | 2:50.70 | 163280 | 176099 15 | 39:08.00 | 3:10.10 | 176100 | 190359

Range status and errors

Selected range

Filename J:\temp\nnm\Impact All Stars - Forward The Bass.wav

Peak level 97.9 % Extraction speed 6.3 X Range quality 99.9 % Test CRC 3C300C99 Copy CRC 3C300C99 Copy OK

No errors occurred

AccurateRip summary

Track 1 accurately ripped (confidence 3) [104418D4] (AR v1)Track 2 accurately ripped (confidence 3) [91BBD436] (AR v1)Track 3 accurately ripped (confidence 3) [6F879888] (AR v1)Track 4 accurately ripped (confidence 3) [4C635F8C] (AR v1)Track 5 accurately ripped (confidence 3) [F52CFAB7] (AR v1)Track 6 accurately ripped (confidence 3) [8C84B22E] (AR v1)Track 7 accurately ripped (confidence 3) [6F21E3DF] (AR v1)Track 8 accurately ripped (confidence 3) [22C42B03] (AR v1)Track 9 accurately ripped (confidence 3) [C8A11A75] (AR v1)Track 10 accurately ripped (confidence 3) [0E1BAFC6] (AR v1)Track 11 accurately ripped (confidence 3) [376BBB3D] (AR v1)Track 12 accurately ripped (confidence 3) [CBD7AE6D] (AR v1)Track 13 accurately ripped (confidence 3) [7BC3A848] (AR v1)Track 14 accurately ripped (confidence 2) [62475643] (AR v1)Track 15 accurately ripped (confidence 2) [69DDA98D] (AR v1)

All tracks accurately ripped

End of status report

---- CUETools DB Plugin V2.1.3

[CTDB TOCID: XDJQrBQ_kVSA.HnlR9GLNHlHfCA-] found, Submit result: XDJQrBQ_kVSA.HnlR9GLNHlHfCA- has been confirmed[dcbea277] (10/10) Accurately ripped

==== Log checksum F00EC5B39BFF8BA6F4588DE77F6104318FA89AEDF39FA73980B9D3CBB190B40E ====


Трекер:  [ 09-Май-2012 17:28 ]

  

Скачать .torrent

Размер .torrent файла 15 KB


Размер: 183 MB
Хэш (hash) релиза: 5dd5f6eab8265c60bae4aa27348e899b01c13416

Еще никто не оставлял запись к записи скачать торрент Impact All Stars - Forward The Bass: Dub from Randys 1972-1975 - 1998, FLAC . Будь первым!

!Обратная связь