Мистика
Britannia HDTV

Скачать через торрент [VIDEO] Потомки The Descendants бесплатно русская версия torrent активатор

Статистика раздачи
Размер:  931 MB   |    Зарегистрирован:  5 лет 11 месяцев   |    .torrent скачан:  46 раз   |   
Раздают:  1  
   
загрузка...
 
Автор Сообщение

Galfimbul

avatar Galfimbul


Потомки / The Descendants
Год выпуска: 2011
[b]Продолжительность:
01:55:00
Производство: США
Жанр: драма, комедия
Перевод: Профессиональный (полное дублирование) | Лицензия[/b]
Субтитры: форсированные (надписи и прочее)
Дата мировой премьеры: 2 сентября 2011
Режиссер: Александр Пэйн / Alexander Payne
Актеры: Джордж Клуни, Шэйлин Вудли, Амара Миллер, Ник Краузе, Грэйс А. Круз, Кауи Харт Хеммингз, Бо Бриджес, Джуди Грир, Роберт Форстер, Мэттью Лиллард, Патти Хасти
Описание фильма:
Главный герой — богатый гавайский землевладелец. Он вместе с двумя дочерьми предпринимает попытку найти любовника жены, искренне веря, что таким образом спасет семейный очаг.
Рейтинг:

Качество: BDRip | [b]Формат: MP4 | Видео кодек: H.264 | Аудио кодек: AAC
Видео: 800x328 (AR 2.40:1), 1000 Kbps, 23.976 fps | Аудио: 128 Kbps, 48.0 KHz, 2ch, Stereo[/b]
General
Complete name : K:\Torrents\Мои раздачи\[VIDEO4PDA] The Descendants\The Descendants 2011 (BDRip 800x328 x264 AAC).mp4
Format : MPEG-4
Format profile : Base Media
Codec ID : isom
File size : 931 MiB
Duration : 1h 55mn
Overall bit rate mode : Variable
Overall bit rate : 1 132 Kbps
Encoded date : UTC 2012-05-08 01:04:34
Tagged date : UTC 2012-05-08 01:04:34

Video
ID : 1
Format : AVC
Format/Info : Advanced Video Codec
Format profile : <a href="mailto:[email protected]" class="postLink">[email protected]</a>
Format settings, CABAC : Yes
Format settings, ReFrames : 6 frames
Codec ID : avc1
Codec ID/Info : Advanced Video Coding
Duration : 1h 55mn
Bit rate : 1 000 Kbps
Maximum bit rate : 7 613 Kbps
Width : 800 pixels
Height : 328 pixels
Display aspect ratio : 2.40:1
Frame rate mode : Constant
Frame rate : 23.976 fps
Color space : YUV
Chroma subsampling : 4:2:0
Bit depth : 8 bits
Scan type : Progressive
Bits/(Pixel*Frame) : 0.159
Stream size : 823 MiB (88%)
Writing library : x264 core 115 r2008 4c552d8
Encoding settings : cabac=1 / ref=6 / deblock=1:0:0 / analyse=0x1:0x111 / me=umh / subme=9 / psy=1 / psy_rd=1.00:0.00 / mixed_ref=1 / me_range=24 / chroma_me=1 / trellis=1 / 8x8dct=0 / cqm=0 / deadzone=21,11 / fast_pskip=0 / chroma_qp_offset=-2 / threads=4 / sliced_threads=0 / nr=0 / decimate=1 / interlaced=0 / bluray_compat=0 / constrained_intra=0 / bframes=6 / b_pyramid=2 / b_adapt=2 / b_bias=0 / direct=3 / weightb=1 / open_gop=0 / weightp=2 / keyint=250 / keyint_min=23 / scenecut=40 / intra_refresh=0 / rc_lookahead=40 / rc=2pass / mbtree=1 / bitrate=1000 / ratetol=1.0 / qcomp=0.60 / qpmin=0 / qpmax=69 / qpstep=4 / cplxblur=20.0 / qblur=0.5 / ip_ratio=1.40 / aq=1:1.00
Encoded date : UTC 2012-05-08 01:04:34
Tagged date : UTC 2012-05-08 01:05:15

Audio
ID : 2
Format : AAC
Format/Info : Advanced Audio Codec
Format profile : LC
Codec ID : 40
Duration : 1h 55mn
Bit rate mode : Variable
Bit rate : 128 Kbps
Maximum bit rate : 155 Kbps
Channel(s) : 2 channels
Channel positions : Front: L R
Sampling rate : 48.0 KHz
Compression mode : Lossy
Stream size : 105 MiB (11%)
Encoded date : UTC 2012-05-08 01:05:11
Tagged date : UTC 2012-05-08 01:05:15
x264 [info]: frame I:1071 Avg QP:15.62 size: 58215
x264 [info]: frame P:37589 Avg QP:18.40 size: 12877
x264 [info]: frame B:126796 Avg QP:22.11 size: 2494
x264 [info]: consecutive B-frames: 4.8% 1.7% 4.4% 13.6% 13.0% 55.4% 7.1%
x264 [info]: mb I I16..4: 28.3% 0.0% 71.7%
x264 [info]: mb P I16..4: 1.3% 0.0% 5.0% P16..4: 40.5% 23.4% 17.5% 0.0% 0.0% skip:12.3%
x264 [info]: mb B I16..4: 0.1% 0.0% 0.6% B16..8: 42.8% 7.1% 2.4% direct: 2.7% skip:44.4% L0:42.9% L1:48.1% BI: 9.0%
x264 [info]: direct mvs spatial:97.6% temporal:2.4%
x264 [info]: coded y,uvDC,uvAC intra: 91.7% 83.7% 58.7% inter: 16.5% 17.3% 2.1%
x264 [info]: i16 v,h,dc,p: 31% 19% 12% 38%
x264 [info]: i4 v,h,dc,ddl,ddr,vr,hd,vl,hu: 11% 7% 3% 9% 14% 13% 16% 11% 16%
x264 [info]: i8c dc,h,v,p: 37% 27% 21% 15%
x264 [info]: Weighted P-Frames: Y:3.8% UV:1.7%
x264 [info]: ref P L0: 54.4% 13.0% 15.7% 6.4% 5.3% 4.9% 0.3% 0.0%
x264 [info]: ref B L0: 78.0% 11.8% 6.9% 2.3% 1.0%
x264 [info]: ref B L1: 91.3% 8.7%
x264 [info]: kb/s:999.95
Релиз подготовлен:



Трекер:  [ 09-Май-2012 21:29 ]

  

Скачать .torrent

Размер .torrent файла 18 KB


Размер: 931 MB
Хэш (hash) релиза: 9e29eb5bd0c1f0c1e6dee0080e8af747784bb6c9

Торренты, похожие на [VIDEO] Потомки The Descendants скачать торрент

Форум Название Автор Размер S L Добавлен
Видео (Фильмы/Клипы) ·· [VIDEO] Потомки / The Descendants (Александр Пэйн / Alexander Payne) [2011 г., драма, BDRip] [MP4, 640x] Galfimbul 802396234765 MB 0 0 1336588200

21:30

9-Май-12

Еще никто не оставлял запись к записи скачать торрент [VIDEO] Потомки The Descendants . Будь первым!

!Обратная связь