tagto be continued... | Могучие Реки / Jeremy Wade's Mighty Rivers [01х01-05 из 06] (2018) HDTVRip | RusFilm | Скачать и Смотреть

Скачать через торрент [VIDEO] Потомки The Descendants бесплатно русская версия torrent активатор

Статистика раздачи
Размер:  765 MB   |    Зарегистрирован:  6 лет 2 месяца   |    .torrent скачан:  38 раз   |   
Раздают:  1  
   
загрузка...
 
Автор Сообщение

Galfimbul

avatar Galfimbul


Потомки / The Descendants
Год выпуска: 2011
Страна: США
Жанр: драма
Продолжительность: 01:55:01
Перевод: Профессиональный (полное дублирование)
Русские субтитры: нет

Режиссер: Александр Пэйн / Alexander Payne

В ролях: Джордж Клуни, Шэйлин Вудли, Амара Миллер, Ник Краузе, Грэйс А. Круз, Кауи Харт Хеммингз, Бо Бриджес, Джуди Грир, Роберт Форстер, Мэттью Лиллард, Патти Хасти

Описание: Главный герой — богатый гавайский землевладелец. Он вместе с двумя дочерьми предпринимает попытку найти любовника жены, искренне веря, что таким образом спасет семейный очаг.

Качество: BDRip
Формат: MP4
Видео кодек: MPEG-4
Аудио кодек: AAC
Видео: 640x264, 24 fps, ~800 kbps avg, 0.2 bit/pixel
Аудио: 48 kHz, 2 ch, 128 kbps
<!--/code_head--> <div class="c-body">General
Complete name : G:\Encode\The Descendants.mp4
Format : MPEG-4
Format profile : Base Media / Version 2
Codec ID : mp42
File size : 765 MiB
Duration : 1h 55mn
Overall bit rate mode : Variable
Overall bit rate : 930 Kbps
Encoded date : UTC 2012-05-07 19:07:45
Tagged date : UTC 2012-05-07 19:07:45

Video
ID : 201
Format : MPEG-4 Visual
Format profile : Advanced [email protected]
Format settings, BVOP : No
Format settings, QPel : No
Format settings, GMC : No warppoints
Format settings, Matrix : Default (H.263)
Codec ID : 20
Duration : 1h 55mn
Bit rate mode : Variable
Bit rate : 800 Kbps
Maximum bit rate : 5 344 Kbps
Width : 640 pixels
Height : 264 pixels
Display aspect ratio : 2.40:1
Frame rate mode : Constant
Frame rate : 23.976 fps
Color space : YUV
Chroma subsampling : 4:2:0
Bit depth : 8 bits
Scan type : Progressive
Compression mode : Lossy
Bits/(Pixel*Frame) : 0.197
Stream size : 658 MiB (86%)
Writing library : XviD 61
Encoded date : UTC 2012-05-07 19:07:45
Tagged date : UTC 2012-05-07 19:08:31

Audio
ID : 101
Format : AAC
Format/Info : Advanced Audio Codec
Format profile : LC
Codec ID : 40
Duration : 1h 55mn
Bit rate mode : Variable
Bit rate : 128 Kbps
Maximum bit rate : 155 Kbps
Channel(s) : 2 channels
Channel positions : Front: L R
Sampling rate : 48.0 KHz
Compression mode : Lossy
Stream size : 105 MiB (14%)
Encoded date : UTC 2012-05-07 19:08:28
Tagged date : UTC 2012-05-07 19:08:31 <!--/code--><!--/code_wrap-->

Релиз от:


Трекер:  [ 09-Май-2012 21:30 ]

  

Скачать .torrent

Размер .torrent файла 15 KB


Размер: 765 MB
Хэш (hash) релиза: b3549deee8468e1ff13b1268ebd0eaae554a144b

Торренты, похожие на [VIDEO] Потомки The Descendants скачать торрент

Форум Название Автор Размер S L Добавлен
Видео (Фильмы/Клипы) ·· [VIDEO] Потомки / The Descendants (Александр Пэйн / Alexander Payne) [2011 г., драма, комедия, BDRip] [MP4, 800x] Galfimbul 976122160931 MB 0 0 1336588140

21:29

9-Май-12

Еще никто не оставлял запись к записи скачать торрент [VIDEO] Потомки The Descendants . Будь первым!

!Обратная связь