Odyssee ins Traumland | Microsoft Windows | Older posts

Скачать через торрент [VIDEO] Бедная богатая девочка Young Adult бесплатно русская версия torrent активатор

Статистика раздачи
Размер:  625 MB   |    Зарегистрирован:  6 лет 2 месяца   |    .torrent скачан:  35 раз   |   
Раздают:  1  
   
загрузка...
 
Автор Сообщение

Galfimbul

avatar Galfimbul


Бедная богатая девочка / Young Adult
Год выпуска: 2011
Страна: США
Жанр: драма, комедия
Продолжительность: 01:33:39
Перевод: Профессиональный (полное дублирование)
Русские субтитры: нет

Режиссер: Джейсон Райтман / Jason Reitman

В ролях: Шарлиз Терон, Пэттон Освальт, Патрик Уилсон, Элизабет Ризер, Коллетт Вульф, Джилл Айкенберри, Ричард Бекинс, Мэри Бет Херт, Кейт Ноулин, Вирджиния ДаРе Полин

Описание: Трагикомедия про писательницу, подрабатывающую литературным негром и выдающую тинейджерские романы, отправившуюся в родной город на поиски бывшего бойфренда, который успел обзавестись семьей и ребенком.

Качество: BDRip
Формат: MP4
Видео кодек: MPEG-4
Аудио кодек: AAC
Видео: 640x360, 24 fps, ~800 kbps avg, 0.15 bit/pixel
Аудио: 48 kHz, 2 ch, 128 kbps
<!--/code_head--> <div class="c-body">General
Complete name : G:\Encode\Young Adult 2011 BDRip.mp4
Format : MPEG-4
Format profile : Base Media / Version 2
Codec ID : mp42
File size : 625 MiB
Duration : 1h 33mn
Overall bit rate mode : Variable
Overall bit rate : 933 Kbps
Encoded date : UTC 2012-05-03 20:05:06
Tagged date : UTC 2012-05-03 20:05:06

Video
ID : 201
Format : MPEG-4 Visual
Format profile : Advanced [email protected]
Format settings, BVOP : No
Format settings, QPel : No
Format settings, GMC : No warppoints
Format settings, Matrix : Default (H.263)
Codec ID : 20
Duration : 1h 33mn
Bit rate mode : Variable
Bit rate : 803 Kbps
Maximum bit rate : 4 115 Kbps
Width : 640 pixels
Height : 360 pixels
Display aspect ratio : 16:9
Frame rate mode : Constant
Frame rate : 23.976 fps
Color space : YUV
Chroma subsampling : 4:2:0
Bit depth : 8 bits
Scan type : Progressive
Compression mode : Lossy
Bits/(Pixel*Frame) : 0.145
Stream size : 538 MiB (86%)
Writing library : XviD 61
Encoded date : UTC 2012-05-03 20:05:06
Tagged date : UTC 2012-05-03 20:05:55

Audio
ID : 101
Format : AAC
Format/Info : Advanced Audio Codec
Format profile : LC
Codec ID : 40
Duration : 1h 33mn
Bit rate mode : Variable
Bit rate : 128 Kbps
Maximum bit rate : 163 Kbps
Channel(s) : 2 channels
Channel positions : Front: L R
Sampling rate : 48.0 KHz
Compression mode : Lossy
Stream size : 85.5 MiB (14%)
Encoded date : UTC 2012-05-03 20:05:52
Tagged date : UTC 2012-05-03 20:05:55 <!--/code--><!--/code_wrap-->


Трекер:  [ 09-Май-2012 21:32 ]

  

Скачать .torrent

Размер .torrent файла 12 KB


Размер: 625 MB
Хэш (hash) релиза: 78666081a562fb2f1faaccd53d55eb06d979160b

Торренты, похожие на [VIDEO] Бедная богатая девочка Young Adult скачать торрент

Форум Название Автор Размер S L Добавлен
Видео (Фильмы/Клипы) ·· [VIDEO] Бедная богатая девочка / Young Adult (Джейсон Райтман / Jason Reitman) [2011 г., драма, комедия, BDRip] [MP4, 800x] Galfimbul 724265297691 MB 0 0 1336588320

21:32

9-Май-12

Еще никто не оставлял запись к записи скачать торрент [VIDEO] Бедная богатая девочка Young Adult . Будь первым!

!Обратная связь