Сборки ОС Windows от Bella | Ornaments | Download

Скачать через торрент [VIDEO] Бедная богатая девочка Young Adult бесплатно русская версия torrent активатор

Статистика раздачи
Размер:  691 MB   |    Зарегистрирован:  6 лет 2 месяца   |    .torrent скачан:  35 раз   |   
Раздают:  1  
   
загрузка...
 
Автор Сообщение

Galfimbul

avatar Galfimbul


Бедная богатая девочка / Young Adult
«Все становятся старше. Но не все взрослеют.»
Год выпуска: 2011
[b]Продолжительность:
01:33:39
Производство: США
Жанр: драма, комедия
Перевод: Профессиональный (полное дублирование) | Лицензия[/b]
Субтитры: нет
Дата мировой премьеры: 9 декабря 2011
Режиссер: Джейсон Райтман / Jason Reitman
Актеры: Шарлиз Терон, Пэттон Освальт, Патрик Уилсон, Элизабет Ризер, Коллетт Вульф, Джилл Айкенберри, Ричард Бекинс, Мэри Бет, Херт Кейт, Ноулин Вирджиния, ДаРе Полин
Описание фильма:
Трагикомедия про писательницу, подрабатывающую литературным негром и выдающую тинейджерские романы, отправившуюся в родной город на поиски бывшего бойфренда, который успел обзавестись семьей и ребенком.
Рейтинг:

Качество: BDRip| [b]Формат: MP4 | Видео кодек: H.264 | Аудио кодек: AAC
Видео: 800x448 (AR 16:9), 900 Kbps, 23.976 fps | Аудио: 128 Kbps, 48.0 KHz, 2ch, Stereo[/b]
General
Complete name : K:\Torrents\Мои раздачи\Young Adult\Young Adult 2011 (BDRip 800x448 x264 AAC).mp4
Format : MPEG-4
Format profile : Base Media
Codec ID : isom
File size : 691 MiB
Duration : 1h 33mn
Overall bit rate mode : Variable
Overall bit rate : 1 031 Kbps
Encoded date : UTC 2012-05-04 00:02:36
Tagged date : UTC 2012-05-04 00:02:36

Video
ID : 1
Format : AVC
Format/Info : Advanced Video Codec
Format profile : <a href="mailto:[email protected]" class="postLink">[email protected]</a>
Format settings, CABAC : Yes
Format settings, ReFrames : 6 frames
Codec ID : avc1
Codec ID/Info : Advanced Video Coding
Duration : 1h 33mn
Bit rate : 900 Kbps
Maximum bit rate : 5 144 Kbps
Width : 800 pixels
Height : 448 pixels
Display aspect ratio : 16:9
Frame rate mode : Constant
Frame rate : 23.976 fps
Color space : YUV
Chroma subsampling : 4:2:0
Bit depth : 8 bits
Scan type : Progressive
Bits/(Pixel*Frame) : 0.105
Stream size : 603 MiB (87%)
Writing library : x264 core 115 r2008 4c552d8
Encoding settings : cabac=1 / ref=6 / deblock=1:0:0 / analyse=0x1:0x111 / me=umh / subme=9 / psy=1 / psy_rd=1.00:0.00 / mixed_ref=1 / me_range=24 / chroma_me=1 / trellis=1 / 8x8dct=0 / cqm=0 / deadzone=21,11 / fast_pskip=0 / chroma_qp_offset=-2 / threads=4 / sliced_threads=0 / nr=0 / decimate=1 / interlaced=0 / bluray_compat=0 / constrained_intra=0 / bframes=6 / b_pyramid=2 / b_adapt=2 / b_bias=0 / direct=3 / weightb=1 / open_gop=0 / weightp=2 / keyint=250 / keyint_min=23 / scenecut=40 / intra_refresh=0 / rc_lookahead=40 / rc=2pass / mbtree=1 / bitrate=900 / ratetol=1.0 / qcomp=0.60 / qpmin=0 / qpmax=69 / qpstep=4 / cplxblur=20.0 / qblur=0.5 / ip_ratio=1.40 / aq=1:1.00
Encoded date : UTC 2012-05-04 00:02:36
Tagged date : UTC 2012-05-04 00:03:08

Audio
ID : 2
Format : AAC
Format/Info : Advanced Audio Codec
Format profile : LC
Codec ID : 40
Duration : 1h 33mn
Bit rate mode : Variable
Bit rate : 128 Kbps
Maximum bit rate : 163 Kbps
Channel(s) : 2 channels
Channel positions : Front: L R
Sampling rate : 48.0 KHz
Compression mode : Lossy
Stream size : 85.5 MiB (12%)
Encoded date : UTC 2012-05-04 00:03:05
Tagged date : UTC 2012-05-04 00:03:08
x264 [info]: frame I:1240 Avg QP:13.87 size: 56517
x264 [info]: frame P:28455 Avg QP:16.74 size: 11717
x264 [info]: frame B:105032 Avg QP:20.52 size: 2175
x264 [info]: consecutive B-frames: 1.7% 1.5% 7.4% 23.0% 17.1% 39.8% 9.5%
x264 [info]: mb I I16..4: 30.5% 0.0% 69.5%
x264 [info]: mb P I16..4: 1.6% 0.0% 3.9% P16..4: 41.9% 24.8% 15.0% 0.0% 0.0% skip:12.9%
x264 [info]: mb B I16..4: 0.1% 0.0% 0.2% B16..8: 43.3% 5.4% 1.3% direct: 1.8% skip:47.9% L0:42.9% L1:50.7% BI: 6.4%
x264 [info]: direct mvs spatial:96.9% temporal:3.1%
x264 [info]: coded y,uvDC,uvAC intra: 83.1% 81.7% 59.1% inter: 10.2% 12.0% 1.6%
x264 [info]: i16 v,h,dc,p: 26% 16% 8% 50%
x264 [info]: i4 v,h,dc,ddl,ddr,vr,hd,vl,hu: 8% 6% 3% 11% 16% 15% 14% 13% 14%
x264 [info]: i8c dc,h,v,p: 41% 23% 22% 14%
x264 [info]: Weighted P-Frames: Y:2.0% UV:1.1%
x264 [info]: ref P L0: 55.0% 10.2% 16.0% 8.0% 5.0% 5.4% 0.4% 0.0%
x264 [info]: ref B L0: 79.2% 11.4% 6.5% 2.1% 0.9%
x264 [info]: ref B L1: 90.5% 9.5%
x264 [info]: kb/s:899.63
Релиз подготовлен:



Трекер:  [ 09-Май-2012 21:32 ]

  

Скачать .torrent

Размер .torrent файла 14 KB


Размер: 691 MB
Хэш (hash) релиза: 6567e51a95e601ad639d283b89d5b5ce7cf414c8

Торренты, похожие на [VIDEO] Бедная богатая девочка Young Adult скачать торрент

Форум Название Автор Размер S L Добавлен
Видео (Фильмы/Клипы) ·· [VIDEO] Бедная богатая девочка / Young Adult (Джейсон Райтман / Jason Reitman) [2011 г., драма, комедия, BDRip] [MP4, 640x] Galfimbul 655251502625 MB 0 0 1336588320

21:32

9-Май-12

Еще никто не оставлял запись к записи скачать торрент [VIDEO] Бедная богатая девочка Young Adult . Будь первым!

!Обратная связь