#ayu ting ting | Woman Walks Ahead 2018 5.3 | Panjumittai (2018) Tamil 720p HD HEVC Team-x265mkv mkv

Скачать через торрент [VIDEO] Старый Новый год New Years Eve бесплатно русская версия torrent активатор

Статистика раздачи
Размер:  957 MB   |    Зарегистрирован:  6 лет 2 месяца   |    .torrent скачан:  86 раз   |   
Раздают:  1  
   
загрузка...
 
Автор Сообщение

Galfimbul

avatar Galfimbul


Старый Новый год / New Year's Eve

Год выпуска: 2011
Страна: США
Жанр: мелодрама, комедия
Продолжительность: 01:57:54
Перевод: Профессиональный (полное дублирование)
Русские субтитры: нет

Режиссер: Гэрри Маршалл / Garry Marshall

В ролях: Холли Берри, Джессика Бил, Джон Бон Джови, Эбигейл Бреслин, Лудакрис, Роберт Де Ниро, Джош Дюамель, Зак Эфрон, Гектор Элизондо, Кэтрин Хайгл, Мишель Пфайффер, Сара Джессика Паркер, Тиль Швайгер, Хилари Суэнк, Алисса Милано, Джеймс Белуши и др.

Описание: Герои фильма — жители города, который никогда не спит. Нью-Йорк накануне Нового года переплетет жизни нескольких героев: умирающего в больнице пожилого человека, секретаршу, решившую осуществить данные себе обещания, продюсера знаменитого новогоднего шоу на Таймс Сквер, человека, который вообще ненавидит этот праздник.

Качество: BDRip
Формат: MP4
Видео кодек: MPEG-4
Аудио кодек: AAC
Видео: 640x360, 24 fps, ~1000 kbps avg, 0.18 bit/pixel
Аудио: 48 kHz, 2 ch, 128 kbps
<!--/code_head--> <div class="c-body">General
Complete name : G:\Encode\Stariy-Noviy god.mp4
Format : MPEG-4
Format profile : Base Media / Version 2
Codec ID : mp42
File size : 957 MiB
Duration : 1h 57mn
Overall bit rate mode : Variable
Overall bit rate : 1 134 Kbps
Encoded date : UTC 2012-05-02 11:59:48
Tagged date : UTC 2012-05-02 11:59:48

Video
ID : 201
Format : MPEG-4 Visual
Format profile : Advanced [email protected]
Format settings, BVOP : No
Format settings, QPel : No
Format settings, GMC : No warppoints
Format settings, Matrix : Default (H.263)
Codec ID : 20
Duration : 1h 57mn
Bit rate mode : Variable
Bit rate : 1 004 Kbps
Maximum bit rate : 5 577 Kbps
Width : 640 pixels
Height : 360 pixels
Display aspect ratio : 16:9
Frame rate mode : Constant
Frame rate : 23.976 fps
Color space : YUV
Chroma subsampling : 4:2:0
Bit depth : 8 bits
Scan type : Progressive
Compression mode : Lossy
Bits/(Pixel*Frame) : 0.182
Stream size : 847 MiB (88%)
Writing library : XviD 61
Encoded date : UTC 2012-05-02 11:59:48
Tagged date : UTC 2012-05-02 12:00:56

Audio
ID : 101
Format : AAC
Format/Info : Advanced Audio Codec
Format profile : LC
Codec ID : 40
Duration : 1h 57mn
Bit rate mode : Variable
Bit rate : 128 Kbps
Maximum bit rate : 167 Kbps
Channel(s) : 2 channels
Channel positions : Front: L R
Sampling rate : 48.0 KHz
Compression mode : Lossy
Stream size : 108 MiB (11%)
Encoded date : UTC 2012-05-02 12:00:52
Tagged date : UTC 2012-05-02 12:00:56 <!--/code--><!--/code_wrap-->


Релиз от:


Трекер:  [ 09-Май-2012 21:35 ]

  

Скачать .torrent

Размер .torrent файла 19 KB


Размер: 957 MB
Хэш (hash) релиза: 3096e7b58f998754db7e080f9ac6be5ee740c4e7

Еще никто не оставлял запись к записи скачать торрент [VIDEO] Старый Новый год New Years Eve . Будь первым!

!Обратная связь