Theo Taplitz | 18:05 Court 11 : Marius Copil / Stefanos Tsitsipas vs Santiago González / Marcelo Demoliner | Batgirl and the Birds of Prey - Rebirth 01 (2016) (2 covers) (digital) (Minutemen-Thoth).cbz (- Nem -)

Скачать через торрент музыку Roots Radics - Live At Channel One Kingston Jamaica бесплатно без регистрации torrent

Статистика раздачи
Размер:  201 MB   |    Зарегистрирован:  6 лет 2 месяца   |    .torrent скачан:  34 раза   |   
Раздают:  1  
   
загрузка...
 
Автор Сообщение

_N_

avatar _N_


Roots Radics / At Channel One Kingston Jamaica (1982)

Жанр: Dub
Страна-производитель диска: -
Год издания: -
Издатель (лейбл): Live And Love
Номер по каталогу: LAP100 CD
Аудиокодек: FLAC (*.flac)
Тип рипа: image+.cue
Битрейт аудио: lossless
Источник (релизер): 42:04
Наличие сканов в содержимом раздачи: нет
Треклист:
01 Dedication To Dean Frazer & Nambo (3:41)
02 Dedication To Flabba Holt 1 (3:58)
03 Dedication To Flabba Holt 2 (3:50)
04 Dedication To Bingy Bunny (3:44)
05 Dedication To Sky Juice (4:25)
06 Dedication To Gladdie (3:25)
07 Dedication To Dwight (3:37)
08 Dedication To Style Scott (3:26)
09 Dedication To Sowell (3:18)
10 Dedication To Steelie (3:33)
11 Dedication To Barnabas (5:08)
  
Exact Audio Copy V1.0 beta 3 from 29. August 2011

EAC extraction logfile from 2. May 2012, 18:55

Roots Radics / Live At Channel One Kingston Jamaica

Used drive : Optiarc BD RW BD-5300S Adapter: 1 ID: 1

Read mode : SecureUtilize accurate stream : YesDefeat audio cache : YesMake use of C2 pointers : No

Read offset correction : 6Overread into Lead-In and Lead-Out : NoFill up missing offset samples with silence : YesDelete leading and trailing silent blocks : NoNull samples used in CRC calculations : YesUsed interface : Installed external ASPI interface

Used output format : User Defined EncoderSelected bitrate : 1024 kBit/sQuality : HighAdd ID3 tag : NoCommand line compressor : C:\Program Files\Exact Audio Copy\Flac\flac.exeAdditional command line options : -8 -V %source%

TOC of the extracted CD

Track | Start | Length | Start sector | End sector --------------------------------------------------------- 1 | 0:00.00 | 3:40.71 | 0 | 16570 2 | 3:40.71 | 3:57.56 | 16571 | 34401 3 | 7:38.52 | 3:49.53 | 34402 | 51629 4 | 11:28.30 | 3:44.16 | 51630 | 68445 5 | 15:12.46 | 4:24.52 | 68446 | 88297 6 | 19:37.23 | 3:24.44 | 88298 | 103641 7 | 23:01.67 | 3:37.06 | 103642 | 119922 8 | 26:38.73 | 3:26.00 | 119923 | 135372 9 | 30:04.73 | 3:18.11 | 135373 | 150233 10 | 33:23.09 | 3:32.48 | 150234 | 166181 11 | 36:55.57 | 5:07.71 | 166182 | 189277

Range status and errors

Selected range

Filename J:\temp\nnm\Roots Radics - Live At Channel One Kingston Jamaica.wav

Peak level 99.9 % Extraction speed 3.2 X Range quality 100.0 % Test CRC 49C32BE6 Copy CRC 49C32BE6 Copy OK

No errors occurred

AccurateRip summary

Track 1 not present in databaseTrack 2 not present in databaseTrack 3 not present in databaseTrack 4 not present in databaseTrack 5 not present in databaseTrack 6 not present in databaseTrack 7 not present in databaseTrack 8 not present in databaseTrack 9 not present in databaseTrack 10 not present in databaseTrack 11 not present in database

None of the tracks are present in the AccurateRip database

End of status report

---- CUETools DB Plugin V2.1.3

[CTDB TOCID: ei09V0Al6vtjMkYbCmrxuQToG8Y-] disk not present in database, Submit result: ei09V0Al6vtjMkYbCmrxuQToG8Y- has been uploaded

==== Log checksum C36218A115A80370EC4D384EC27C0DD1C9D7C7587125BE27282F76C2D7221161 ====


Трекер:  [ 04-Май-2012 15:48 ]

  

Скачать .torrent

Размер .torrent файла 16 KB


Размер: 201 MB
Хэш (hash) релиза: d5531362ba95098a50855a4da59e0c52dcf68279

Еще никто не оставлял запись к записи скачать торрент Roots Radics - Live At Channel One Kingston Jamaica . Будь первым!

!Обратная связь