au hasard | Disparo Letal | Chennai Chinnodu (2018) Telugu Full Movie Watch Online Free

Скачать через торрент музыку Dub Division - Дискография бесплатно без регистрации torrent

Статистика раздачи
Размер:  506 MB   |    Зарегистрирован:  6 лет 2 месяца   |    .torrent скачан:  44 раза   |   
Раздают:  1  
   
загрузка...
 
Автор Сообщение

_N_

avatar _N_


(Dub) Dub Division - Дискография - 2007, FLAC (tracks+.cue) lossless

Dub Division / Дискография

Количество релизов (альбомов / синглов / EP/ сборников): 2
Жанр: Dub / Reggae
Страна-производитель диска: Россия
Год издания диска: 2007
Издатель (лейбл): Мистерия звука
Номер по каталогу: DD-001-06
Страна: Россия
Аудиокодек: FLAC
Тип рипа: tracks+.cue
Битрейт аудио: lossless
Продолжительность: 47:45
Источник: собственный рип
Наличие сканов в содержимом раздачи: да
Треклист:
1. Skazka
2. Dub
3. Your Voice
4. Scarecrow (feat. Delphinov)
5. Dog Masks
6. One Day...
7. Hm Dub (ICQ Dub)
8. Moi KaDub
9. Argyzum (feat. VPR)
10. Bonus 14.13
  
Exact Audio Copy V0.99 prebeta 5 from 4. May 2009

EAC extraction logfile from 1. October 2010, 6:45

Dub Division / Dub Division

Used drive : TSSTcorpCDDVDW TS-L633P Adapter: 1 ID: 0

Read mode : SecureUtilize accurate stream : YesDefeat audio cache : YesMake use of C2 pointers : No

Read offset correction : 6Overread into Lead-In and Lead-Out : NoFill up missing offset samples with silence : YesDelete leading and trailing silent blocks : NoNull samples used in CRC calculations : YesUsed interface : Native Win32 interface for Win NT & 2000Gap handling : Appended to previous track

Used output format : User Defined EncoderSelected bitrate : 32 kBit/sQuality : HighAdd ID3 tag : NoCommand line compressor : C:\Program Files\Exact Audio Copy\FLAC\FLAC.EXEAdditional command line options : -8 -V -T "ARTIST=%a" -T "TITLE=%t" -T "ALBUM=%g" -T "DATE=%y" -T "TRACKNUMBER=%n" -T "GENRE=%m" -T "COMMENT=EAC FLAC -8" %s

TOC of the extracted CD

Track | Start | Length | Start sector | End sector --------------------------------------------------------- 1 | 0:00.00 | 2:13.26 | 0 | 10000 2 | 2:13.26 | 3:58.22 | 10001 | 27872 3 | 6:11.48 | 4:08.09 | 27873 | 46481 4 | 10:19.57 | 4:58.02 | 46482 | 68833 5 | 15:17.59 | 4:10.31 | 68834 | 87614 6 | 19:28.15 | 3:44.17 | 87615 | 104431 7 | 23:12.32 | 5:23.74 | 104432 | 128730 8 | 28:36.31 | 4:29.55 | 128731 | 148960 9 | 33:06.11 | 8:11.67 | 148961 | 185852 10 | 41:18.03 | 6:24.46 | 185853 | 214698 11 | 47:42.49 | 0:07.56 | 214699 | 215279

Track 1

Filename F:\downloads\Dub Division\Dub Division\01. Dub Division – Skazka.wav

Pre-gap length 0:00:02.00

Peak level 100.0 % Track quality 100.0 % Test CRC 9A15FD46 Copy CRC 9A15FD46 Accurately ripped (confidence 2) [588A1DF1] Copy OK

Track 2

Filename F:\downloads\Dub Division\Dub Division\02. Dub Division – Dub.wav

Peak level 100.0 % Track quality 100.0 % Test CRC 750191C8 Copy CRC 750191C8 Accurately ripped (confidence 2) [7F33DD72] Copy OK

Track 3

Filename F:\downloads\Dub Division\Dub Division\03. Dub Division – Your Voice.wav

Peak level 100.0 % Track quality 100.0 % Test CRC 94A4FE80 Copy CRC 94A4FE80 Accurately ripped (confidence 2) [69C524C5] Copy OK

Track 4

Filename F:\downloads\Dub Division\Dub Division\04. Dub Division – Scarecrow (feat. Delphinov).wav

Peak level 100.0 % Track quality 100.0 % Test CRC 2F839F97 Copy CRC 2F839F97 Accurately ripped (confidence 2) [A718AFB7] Copy OK

Track 5

Filename F:\downloads\Dub Division\Dub Division\05. Dub Division – Dog Masks.wav

Peak level 100.0 % Track quality 100.0 % Test CRC 972599EF Copy CRC 972599EF Accurately ripped (confidence 2) [7A4ACC91] Copy OK

Track 6

Filename F:\downloads\Dub Division\Dub Division\06. Dub Division – One Day....wav

Peak level 100.0 % Track quality 100.0 % Test CRC A441DFE7 Copy CRC A441DFE7 Accurately ripped (confidence 2) [91B2AF47] Copy OK

Track 7

Filename F:\downloads\Dub Division\Dub Division\07. Dub Division – Hm Dub (ICQ Dub).wav

Peak level 100.0 % Track quality 100.0 % Test CRC 05455D11 Copy CRC 05455D11 Accurately ripped (confidence 2) [2F3C3B94] Copy OK

Track 8

Filename F:\downloads\Dub Division\Dub Division\08. Dub Division – Moi KaDub.wav

Peak level 100.0 % Track quality 100.0 % Test CRC 1ABAFB0C Copy CRC 1ABAFB0C Accurately ripped (confidence 2) [5E91FD6E] Copy OK

Track 9

Filename F:\downloads\Dub Division\Dub Division\09. Dub Division – Argyzum (feat. VPR).wav

Peak level 100.0 % Track quality 100.0 % Test CRC 823DEE4C Copy CRC 823DEE4C Accurately ripped (confidence 2) [1FA02932] Copy OK

Track 10

Filename F:\downloads\Dub Division\Dub Division\10. Dub Division – Bonus 14.13.wav

Peak level 100.0 % Track quality 100.0 % Test CRC D21C7FBD Copy CRC D21C7FBD Accurately ripped (confidence 2) [43E8F8C4] Copy OK

Track 11

Filename F:\downloads\Dub Division\Dub Division\11. Dub Division –.wav

Peak level 17.8 % Track quality 97.9 % Test CRC 62D703ED Copy CRC 62D703ED Accurately ripped (confidence 2) [735809D2] Copy OK

All tracks accurately ripped

No errors occurred

End of status report
  
REM GENRE ReggaeREM DATE 2007REM DISCID 9B0B360BREM COMMENT "ExactAudioCopy v0.99pb5"PERFORMER "Dub Division"TITLE "Dub Division"FILE "01. Dub Division – Skazka.wav" WAVE TRACK 01 AUDIO TITLE "Skazka" PERFORMER "Dub Division" INDEX 01 00:00:00FILE "02. Dub Division – Dub.wav" WAVE TRACK 02 AUDIO TITLE "Dub" PERFORMER "Dub Division" INDEX 01 00:00:00FILE "03. Dub Division – Your Voice.wav" WAVE TRACK 03 AUDIO TITLE "Your Voice" PERFORMER "Dub Division" INDEX 01 00:00:00FILE "04. Dub Division – Scarecrow (feat. Delphinov).wav" WAVE TRACK 04 AUDIO TITLE "Scarecrow (feat. Delphinov)" PERFORMER "Dub Division" INDEX 01 00:00:00FILE "05. Dub Division – Dog Masks.wav" WAVE TRACK 05 AUDIO TITLE "Dog Masks" PERFORMER "Dub Division" INDEX 01 00:00:00FILE "06. Dub Division – One Day....wav" WAVE TRACK 06 AUDIO TITLE "One Day..." PERFORMER "Dub Division" INDEX 01 00:00:00FILE "07. Dub Division – Hm Dub (ICQ Dub).wav" WAVE TRACK 07 AUDIO TITLE "Hm Dub (ICQ Dub)" PERFORMER "Dub Division" INDEX 01 00:00:00FILE "08. Dub Division – Moi KaDub.wav" WAVE TRACK 08 AUDIO TITLE "Moi KaDub" PERFORMER "Dub Division" INDEX 01 00:00:00FILE "09. Dub Division – Argyzum (feat. VPR).wav" WAVE TRACK 09 AUDIO TITLE "Argyzum (feat. VPR)" PERFORMER "Dub Division" INDEX 01 00:00:00FILE "10. Dub Division – Bonus 14.13.wav" WAVE TRACK 10 AUDIO TITLE "Bonus 14.13" PERFORMER "Dub Division" INDEX 01 00:00:00FILE "11. Dub Division –.wav" WAVE TRACK 11 AUDIO TITLE " " PERFORMER "Dub Division" INDEX 01 00:00:00
AUDIOCHECKER v1.2 - by Dester - <a href="mailto:[email protected]" class="postLink">[email protected]</a>
~~~~~~~~~~~~~~~~~

01 -===- F:\downloads\Dub Division\Dub Division\01. Dub Division – Skazka.flac
Extracted successfully
Conclusion: This track looks like CDDA with probability 100%

02 -===- F:\downloads\Dub Division\Dub Division\02. Dub Division – Dub.flac
Extracted successfully
Conclusion: This track looks like CDDA with probability 100%

03 -===- F:\downloads\Dub Division\Dub Division\03. Dub Division – Your Voice.flac
Extracted successfully
Conclusion: This track looks like CDDA with probability 100%

04 -===- F:\downloads\Dub Division\Dub Division\04. Dub Division – Scarecrow (feat. Delphinov).flac
Extracted successfully
Conclusion: This track looks like CDDA with probability 100%

05 -===- F:\downloads\Dub Division\Dub Division\05. Dub Division – Dog Masks.flac
Extracted successfully
Conclusion: This track looks like CDDA with probability 100%

06 -===- F:\downloads\Dub Division\Dub Division\06. Dub Division – One Day....flac
Extracted successfully
Conclusion: This track looks like CDDA with probability 99%

07 -===- F:\downloads\Dub Division\Dub Division\07. Dub Division – Hm Dub (ICQ Dub).flac
Extracted successfully
Conclusion: This track looks like CDDA with probability 100%

08 -===- F:\downloads\Dub Division\Dub Division\08. Dub Division – Moi KaDub.flac
Extracted successfully
Conclusion: This track looks like CDDA with probability 100%

09 -===- F:\downloads\Dub Division\Dub Division\09. Dub Division – Argyzum (feat. VPR).flac
Extracted successfully
Conclusion: This track looks like CDDA with probability 100%

10 -===- F:\downloads\Dub Division\Dub Division\10. Dub Division – Bonus 14.13.flac
Extracted successfully
Conclusion: This track looks like CDDA with probability 100%

11 -===- F:\downloads\Dub Division\Dub Division\11. Dub Division –.flac
Extracted successfully
Conclusion: This track looks like CDDA with probability 100%
Издатель (лейбл): dCHS
Номер по каталогу: DD-001-2007 CD
Страна: Россия
Аудиокодек: FLAC
Тип рипа: tracks+.cue
Битрейт аудио: lossless
Продолжительность: 30:24
Источник: собственный рип
Наличие сканов в содержимом раздачи: да
Треклист:
1. DuBass (Ambient Mix)
2. Argyzum (Back Vocal + Khomus Mix)
3. Your Voice (2007 special remix)
4. [email protected] (Live @ the B2 club 31 May 2007)
  
Exact Audio Copy V0.99 prebeta 5 from 4. May 2009

EAC extraction logfile from 28. September 2010, 19:04

Dub Division / Maxi Single

Used drive : TSSTcorpCDDVDW TS-L633P Adapter: 1 ID: 0

Read mode : SecureUtilize accurate stream : YesDefeat audio cache : YesMake use of C2 pointers : No

Read offset correction : 6Overread into Lead-In and Lead-Out : NoFill up missing offset samples with silence : YesDelete leading and trailing silent blocks : NoNull samples used in CRC calculations : YesUsed interface : Native Win32 interface for Win NT & 2000Gap handling : Appended to previous track

Used output format : User Defined EncoderSelected bitrate : 32 kBit/sQuality : HighAdd ID3 tag : NoCommand line compressor : C:\Program Files\Exact Audio Copy\FLAC\FLAC.EXEAdditional command line options : -8 -V -T "ARTIST=%a" -T "TITLE=%t" -T "ALBUM=%g" -T "DATE=%y" -T "TRACKNUMBER=%n" -T "GENRE=%m" -T "COMMENT=EAC FLAC -8" %s

TOC of the extracted CD

Track | Start | Length | Start sector | End sector --------------------------------------------------------- 1 | 0:00.00 | 5:53.00 | 0 | 26474 2 | 5:53.00 | 8:04.04 | 26475 | 62778 3 | 13:57.04 | 5:11.36 | 62779 | 86139 4 | 19:08.40 | 11:16.45 | 86140 | 136884

Track 1

Filename F:\downloads\Dub Division\Maxi Single\01. Dub Division – Dubass (ambient mix).wav

Pre-gap length 0:00:02.00

Peak level 100.0 % Track quality 99.9 % Test CRC B01984B3 Copy CRC B01984B3 Copy OK

Track 2

Filename F:\downloads\Dub Division\Maxi Single\02. Dub Division – Argyzum (back vocal + khomus mix).wav

Peak level 100.0 % Track quality 100.0 % Test CRC AA40C0A9 Copy CRC AA40C0A9 Copy OK

Track 3

Filename F:\downloads\Dub Division\Maxi Single\03. Dub Division – Your Voice (2007 special remix).wav

Peak level 100.0 % Track quality 99.9 % Test CRC C353D07D Copy CRC C353D07D Copy OK

Track 4

Filename F:\downloads\Dub Division\Maxi Single\04. Dub Division – [email protected] (live @ the b2 club 31 may 2007).wav

Peak level 100.0 % Track quality 100.0 % Test CRC 23B9FFE1 Copy CRC 23B9FFE1 Copy OK

No errors occurred

End of status report
  
REM GENRE ReggaeREM DATE 2007REM DISCID 2A072104REM COMMENT "ExactAudioCopy v0.99pb5"PERFORMER "Dub Division"TITLE "Maxi Single"FILE "01. Dub Division – Dubass (ambient mix).wav" WAVE TRACK 01 AUDIO TITLE "Dubass (ambient mix)" PERFORMER "Dub Division" FLAGS DCP INDEX 01 00:00:00FILE "02. Dub Division – Argyzum (back vocal + khomus mix).wav" WAVE TRACK 02 AUDIO TITLE "Argyzum (back vocal + khomus mix)" PERFORMER "Dub Division" FLAGS DCP INDEX 01 00:00:00FILE "03. Dub Division – Your Voice (2007 special remix).wav" WAVE TRACK 03 AUDIO TITLE "Your Voice (2007 special remix)" PERFORMER "Dub Division" FLAGS DCP INDEX 01 00:00:00FILE "04. Dub Division – [email protected] (live @ the b2 club 31 may 2007).wav" WAVE TRACK 04 AUDIO TITLE "[email protected] (live @ the b2 club 31 may 2007)" PERFORMER "Dub Division" FLAGS DCP INDEX 01 00:00:00
AUDIOCHECKER v1.2 - by Dester - <a href="mailto:[email protected]" class="postLink">[email protected]</a>
~~~~~~~~~~~~~~~~~

1 -===- F:\downloads\Dub Division\Maxi Single\01. Dub Division – Dubass (ambient mix).flac
Extracted successfully
Conclusion: This track looks like CDDA with probability 99%

2 -===- F:\downloads\Dub Division\Maxi Single\02. Dub Division – Argyzum (back vocal + khomus mix).flac
Extracted successfully
Conclusion: This track looks like CDDA with probability 100%

3 -===- F:\downloads\Dub Division\Maxi Single\03. Dub Division – Your Voice (2007 special remix).flac
Extracted successfully
Conclusion: This track looks like CDDA with probability 100%

4 -===- F:\downloads\Dub Division\Maxi Single\04. Dub Division – [email protected] (live @ the b2 club 31 may 2007).flac
Extracted successfully
Conclusion: This track looks like CDDA with probability 100%
Проект Dub Division образовался весной 2006 года. Основатели проекта — музыканты одной из первых регги-групп страны, её творческий костяк. Идея проекта — исполнение музыки в стиле dub и reggae с использованием современных выразительных средств — сэмплеры, секвенсоры, многочисленные электронные эффекты и т.д. Современное видение культуры и неординарный подход к работе на концертах и в студии отличает Dub Division от других подобных проектов. Проект открытый, так что в концертах Dub Division могут принимать участие совершенно неожиданные музыканты (и не только) различных стилей и направлений. Несмотря на то, что проект существует недавно, Dub Division приняли участие во многих фестивалях, в том числе за границей.

http://dubdivision.ru


Трекер:  [ 04-Май-2012 15:46 ]

  

Скачать .torrent

Размер .torrent файла 44 KB


Размер: 506 MB
Хэш (hash) релиза: 9161ffc3f8c12f31488cd5ffa0c3891899df6e07

Еще никто не оставлял запись к записи скачать торрент Dub Division - Дискография . Будь первым!

!Обратная связь