Musical Cliquez pour regarder | Next Page » | SuperFreakonomics

Скачать через торрент [VIDEO] Mачo и бoтaн 2I Jumр Strеet бесплатно русская версия torrent активатор

Статистика раздачи
Размер:  747 MB   |    Зарегистрирован:  6 лет 2 месяца   |    .torrent скачан:  37 раз   |   
Раздают:  1  
   
загрузка...
 
Автор Сообщение

Galfimbul

avatar Galfimbul


Mачo и бoтaн / 2I Jumр Strеet
Год выпуска: 2012
Страна: США
Жанр: боевик, комедия, криминал
Продолжительность: 01:45:30
Перевод: Профессиональный (полное дублирование)
Русские субтитры: нет
Режиссер: Фил Лopд / Рhil Lоrd, Kpис Миллep / Сhris Мillеr

В ролях: Джона Хилл, Ченнинг Татум, Бри Ларсон, Дэйв Франко, Роб Риггл, Айс Кьюб, ДеРэй Дэвис, Дакс Флэйм, Крис Парнелл, Элли Кемпер
Описание: Шмидт (Джона Хилл) и Джанко (Ченниг Татум) всю свою жизнь находились на противоположных ступеньках социальной лестницы в школе.
Но жизнь распорядилась так, что в полицейской академии они стали друзьями и отличной командой, в которой грамотно сочеталась грубая физическая сила и блестящий ум. При всем при этом их никак нельзя было назвать гордостью отделения до тех пор, пока судьба не подкинула им шанс все изменить. Этим шансом для них стал перевод в департамент секретной службы на Джамп стрит, которым руководил злобный черный капитан Диксон. В задачу новоприбывших входило внедрение в одну из местных школ, где появился новый наркотик.

Однако за пять лет с момента собственного выпуска в молодежной среде многое поменялось. Внезапно выяснилось, что обществом рулят во все не накаченные качки из спортивной команды, а толерантные хипстеры, заботящиеся об окружающей среде. Плюс становится, очевидно, что, несмотря на прошедшие годы, детские комплексы так и не удалось полностью искоренить. Обоим героям предстоит вновь заглянуть в глаза собственным страхам и в прямом смысле слова вернуться в шкуры тинэйджеров.

Исходник (ссылка): DVD9
Качество: DVDRip
Формат: MP4
Видео кодек: H.264
Аудио кодек: AAC
Видео: 640x268, 860 Kbps, 25.000 fps
Аудио: 48 KHz, 2 channels, ~128 kbps

  
Format : MPEG-4Format profile : Base MediaCodec ID : isomFile size : 747 MiBDuration : 1h 45mnOverall bit rate mode : VariableOverall bit rate : 990 KbpsEncoded date : UTC 2012-05-01 15:54:51Tagged date : UTC 2012-05-01 15:54:51

VideoID : 1Format : AVCFormat/Info : Advanced Video CodecFormat profile : <a href="mailto:[email protected]" class="postLink">[email protected]</a> settings, CABAC : NoFormat settings, ReFrames : 3 framesCodec ID : avc1Codec ID/Info : Advanced Video CodingDuration : 1h 45mnBit rate : 860 KbpsMaximum bit rate : 3 149 KbpsWidth : 640 pixelsHeight : 268 pixelsDisplay aspect ratio : 2.40:1Frame rate mode : ConstantFrame rate : 25.000 fpsColor space : YUVChroma subsampling : 4:2:0Bit depth : 8 bitsScan type : ProgressiveBits/(Pixel*Frame) : 0.201Stream size : 649 MiB (87%)Writing library : x264 core 124 r2197 69a0443Encoding settings : cabac=0 / ref=3 / deblock=1:0:0 / analyse=0x1:0x111 / me=umh / subme=9 / psy=1 / psy_rd=1.05:0.00 / mixed_ref=1 / me_range=24 / chroma_me=1 / trellis=0 / 8x8dct=0 / cqm=0 / deadzone=21,11 / fast_pskip=0 / chroma_qp_offset=-2 / threads=6 / sliced_threads=0 / nr=0 / decimate=1 / interlaced=0 / bluray_compat=0 / constrained_intra=0 / bframes=0 / weightp=0 / keyint=250 / keyint_min=25 / scenecut=40 / intra_refresh=0 / rc=2pass / mbtree=0 / bitrate=860 / ratetol=1.0 / qcomp=0.70 / qpmin=0 / qpmax=69 / qpstep=4 / cplxblur=20.0 / qblur=0.5 / ip_ratio=1.40 / aq=1:1.00 / zones=150775,158250,b=0.3Encoded date : UTC 2012-05-01 15:11:48Tagged date : UTC 2012-05-01 15:55:16

AudioID : 2Format : AACFormat/Info : Advanced Audio CodecFormat profile : LCCodec ID : 40Duration : 1h 45mnBit rate mode : VariableBit rate : 128 KbpsMaximum bit rate : 166 KbpsChannel(s) : 2 channelsChannel positions : Front: L RSampling rate : 48.0 KHzCompression mode : LossyStream size : 96.2 MiB (13%)Encoded date : UTC 2012-05-01 15:55:12Tagged date : UTC 2012-05-01 15:55:16


Трекер:  [ 07-Май-2012 18:01 ]

  

Скачать .torrent

Размер .torrent файла 15 KB


Размер: 747 MB
Хэш (hash) релиза: d4d99dd5bdf51fc5dae0e1c57ea84a4976c164a9

Еще никто не оставлял запись к записи скачать торрент [VIDEO] Mачo и бoтaн 2I Jumр Strеet . Будь первым!

!Обратная связь